.
Авторизация | Регистрация
Хочешь лучшие торренты? Добавь свой email!
Добавить

Торрент скачать бесплатно

» » С террасы / From the Terrace (1960) BDRip [H.264] торрент скачать бесплатно




    С террасы / From the Terrace (1960) BDRip [H.264] торрент скачать бесплатно

    Опубликовал: Админ | Дата: 10-10-2017, 05:00 | Просмотров: 0

    Производство: США. Linebrook
    Жанр: Драма, Мелодрама
    Режиссер: Марк Робсон

    Актеры
    Пол Ньюман, Джоэнн Вудворд, Мирна Лой, Ина Балин, Леон Эймс, Элизабет Аллен, Барбара Иден, Джордж Гриззард, Патрик О’Нил, Феликс Эйлмер, Рэймонд Гринлиф, Малкольм Аттербери, Рэймонд Бэйли, Ховард Кейн, Кэтрин Гивни и др.

    Описание

    Экранизация одноименного романа Джона О Хары.
    Альфред Итон приезжает в Нью-Йорк, чтобы основать авиастроительную корпорацию. Знакомство с одним из самых влиятельнейших финансистов Америки Джеймсом Дунканом Маккарди становится для молодого человека большой удачей - он получает место в его инвестиционной компании. Целеустремленный Итон работает, не жалея сил, и уверенными шагами взбирается по карьерной лестнице. Однажды в Пенсильвании он знакомиться с юной Натали и безумно влюбляется. Теперь Афльфреду предстоит сделать нелегкий выбор: ведь внезапно вспыхнувшее сильное чувство может в одно мгновение разрушить все, к чему он так долго стремился - успех, богатство, брак...

    Продолжительность: 02: 24: 03
    Качество видео: BDRip
    Перевод: Многоголосый закадровый, двуголосый закадровый
    Субтитры: Английские
    Видео: AVC/H.264, 960x408, ~2300 Kbps
    Аудио#1: AC3, 2 ch, 192 Kbps | Русский - МVO (ОРТ)
    Аудио#2: AC3, 2 ch, 192 Kbps | Русский - DVO
    Аудио#3: AC3, 2 ch, 256 Kbps | Английский - оригинал

    Общее
    Уникальный идентификатор : 239059664420503980696441724773259379324 (0xB3D937746CE9B7EDB5F8E1E691FD827C)
    Полное имя : F: Пол НьюманС террасыС террасы. 1960.mkv
    Формат : Matroska
    Версия формата : Version 4/Version 2
    Размер файла : 2, 96 Гбайт
    Продолжительность : 2 ч. 24 м.
    Общий поток : 2942 Кбит/сек
    Название фильма : Release for Topmost
    Дата кодирования : UTC 2017-10-09 04: 27: 22
    Программа кодирования : mkvmerge v6.2.0 (\'Promised Land\') built on Apr 28 2013 12: 22: 01
    Библиотека кодирования : libebml v1.3.0 + libmatroska v1.4.0
    Attachment : Yes
    Видео
    Идентификатор : 1
    Формат : AVC
    Формат/Информация : Advanced Video Codec
    Профиль формата : High@L4.1
    Параметр CABAC формата : Да
    Параметр ReFrames формата : 12 кадров
    Идентификатор кодека : V_MPEG4/ISO/AVC
    Продолжительность : 2 ч. 24 м.
    Битрейт : 2300 Кбит/сек
    Ширина : 960 пикселей
    Высота : 408 пикселей
    Соотношение сторон : 2, 35: 1
    Режим частоты кадров : Постоянный
    Частота кадров : 23, 976 кадра/сек
    Цветовое пространство : YUV
    Субдискретизация насыщенности : 4: 2: 0
    Битовая глубина : 8 бит
    Тип развёртки : Прогрессивная
    Бит/(Пиксели*Кадры) : 0.245
    Размер потока : 2, 26 Гбайт (76%)
    Заголовок : С террасы. 1960 (Release for Topmost)
    Библиотека кодирования : x264 core 146 r2538 121396c
    Настройки программы : cabac=1/ref=12/deblock=1: -3: -3/analyse=0x3: 0x113/me=umh/subme=11/psy=1/psy_rd=1.00: 0.15/mixed_ref=1/me_range=32/chroma_me=1/trellis=2/8x8dct=1/cqm=0/deadzone=21, 11/fast_pskip=0/chroma_qp_offset=-3/threads=12/lookahead_threads=2/sliced_threads=0/nr=0/decimate=0/interlaced=0/bluray_compat=0/constrained_intra=0/bframes=8/b_pyramid=2/b_adapt=2/b_bias=0/direct=1/weightb=1/open_gop=0/weightp=2/keyint=240/keyint_min=23/scenecut=40/intra_refresh=0/rc=2pass/mbtree=0/bitrate=2300/ratetol=1.0/qcomp=0.60/qpmin=0/qpmax=69/qpstep=4/cplxblur=20.0/qblur=0.5/ip_ratio=1.40/pb_ratio=1.30/aq=1: 0.90
    Язык : English
    Default : Да
    Forced : Нет
    Аудио #1
    Идентификатор : 2
    Формат : AC-3
    Формат/Информация : Audio Coding 3
    Расширение режима : CM (complete main)
    Параметр Endianness формата : Big
    Идентификатор кодека : A_AC3
    Продолжительность : 2 ч. 24 м.
    Вид битрейта : Постоянный
    Битрейт : 192 Кбит/сек
    Каналы : 2 канала
    Расположение каналов : Front: L R
    Частота : 48, 0 КГц
    Битовая глубина : 16 бит
    Метод сжатия : С потерями
    Размер потока : 198 Мбайт (7%)
    Заголовок : AC3, 2 ch, 192 Kbps - MVO (1 канал)
    Язык : Russian
    Default : Да
    Forced : Нет
    Аудио #2
    Идентификатор : 3
    Формат : AC-3
    Формат/Информация : Audio Coding 3
    Расширение режима : CM (complete main)
    Параметр Endianness формата : Big
    Идентификатор кодека : A_AC3
    Продолжительность : 2 ч. 24 м.
    Вид битрейта : Постоянный
    Битрейт : 192 Кбит/сек
    Каналы : 2 канала
    Расположение каналов : Front: L R
    Частота : 48, 0 КГц
    Битовая глубина : 16 бит
    Метод сжатия : С потерями
    Размер потока : 198 Мбайт (7%)
    Заголовок : AC3, 2 ch, 192 Kbps - DVO
    Язык : Russian
    Default : Нет
    Forced : Нет
    Аудио #3
    Идентификатор : 4
    Формат : AC-3
    Формат/Информация : Audio Coding 3
    Расширение режима : CM (complete main)
    Параметр Endianness формата : Big
    Идентификатор кодека : A_AC3
    Продолжительность : 2 ч. 24 м.
    Вид битрейта : Постоянный
    Битрейт : 256 Кбит/сек
    Каналы : 2 канала
    Расположение каналов : Front: L R
    Частота : 48, 0 КГц
    Битовая глубина : 16 бит
    Метод сжатия : С потерями
    Размер потока : 264 Мбайт (9%)
    Заголовок : AC3, 2 ch, 256 Kbps - Original
    Язык : English
    Default : Нет
    Forced : Нет
    Текст
    Идентификатор : 5
    Формат : UTF-8
    Идентификатор кодека : S_TEXT/UTF8
    Идентификатор кодека/Информация : UTF-8 Plain Text
    Язык : English
    Default : Нет
    Forced : Нет
    Меню
    00: 00: 00.000 : en: Chapter 01
    00: 07: 23.525 : en: Chapter 02
    00: 11: 06.831 : en: Chapter 03
    00: 18: 12.797 : en: Chapter 04
    00: 22: 50.286 : en: Chapter 05
    00: 28: 59.319 : en: Chapter 06
    00: 36: 05.703 : en: Chapter 07
    00: 41: 29.152 : en: Chapter 08
    00: 49: 36.974 : en: Chapter 09
    00: 55: 23.109 : en: Chapter 10
    01: 00: 32.628 : en: Chapter 11
    01: 06: 35.742 : en: Chapter 12
    01: 12: 31.344 : en: Chapter 13
    01: 16: 59.154 : en: Chapter 14
    01: 25: 15.109 : en: Chapter 15
    01: 31: 21.139 : en: Chapter 16
    01: 37: 03.109 : en: Chapter 17
    01: 41: 42.636 : en: Chapter 18
    01: 48: 31.754 : en: Chapter 19
    01: 55: 08.399 : en: Chapter 20
    02: 00: 43.444 : en: Chapter 21
    02: 04: 29.877 : en: Chapter 22
    02: 11: 08.152 : en: Chapter 23
    02: 15: 25.533 : en: Chapter 24


    Онлайн видео С террасы



    С террасы/From the Terrace (1960) BDRip [H.264]
    загрузка...
    Рейтинг →
     (голосов: 1, оценка 4/5, голосовать можно 1 раз )

    Другие торренты по теме:

  • Журнал | Любимая дача. Спецвыпуск №8. Беседки, веранды и террасы (август 2016) [PDF]


    • Комментарии (0):

      Информация

      Информация

        Посетители, находящиеся в группе Гости, не могут оставлять комментарии в данной новости.

        ↓ Меню




        ↓ Опрос

        Вы добавили сайт в закладки?
        Да
        Нет


        Top 10 за месяц (Фильмы)