.
Авторизация | Регистрация
Хочешь лучшие торренты? Добавь свой email!
Добавить

Торрент скачать бесплатно

» » Собачий день (2015) WEBRip торрент скачать бесплатно




    Собачий день (2015) WEBRip торрент скачать бесплатно

    Опубликовал: Админ | Дата: 10-10-2017, 05:00 | Просмотров: 0

    Производство: Россия
    Жанр: Короткометражный, драма, мелодрама
    Режиссер: Роман Отырба

    Актеры
    Никита Человечков, Нина Андронаки, Марина Тихомирова, Роберт Фишман

    Описание

    История о молодом человеке, который ценой своей мечты совершает никому не заметный поступок. Но в мире ничего не проходит бесследно.

    Возраст: 12+ (зрителям, достигшим 12 лет)
    Релиз от: Алехаndr
    Продолжительность: 00: 30: 41
    Качество видео: WEBRip
    Субтитры: Отсутствуют
    Видео: Xvid, 720x304 (2.35: 1), ~1220 Kbps
    Аудио: AC3, 2 ch, 192 Kbps

    Общее
    Полное имя : D: Собачий день (2015).by.Алехаndr.avi
    Формат : AVI
    Формат/Информация : Audio Video Interleave
    Размер файла : 313 Мбайт
    Продолжительность : 30 м. 42 с.
    Общий поток : 1425 Кбит/сек
    Программа кодирования : Lavf54.63.104
    Видео
    Идентификатор : 0
    Формат : xvid
    Идентификатор кодека : xvid
    Продолжительность : 30 м. 42 с.
    Битрейт : 1222 Кбит/сек
    Ширина : 720 пикселей
    Высота : 304 пикселя
    Соотношение сторон : 2, 35: 1
    Частота кадров : 25, 000 кадров/сек
    Тип развёртки : Прогрессивная
    Бит/(Пиксели*Кадры) : 0.223
    Размер потока : 268 Мбайт (86%)
    Аудио
    Идентификатор : 1
    Формат : AC-3
    Формат/Информация : Audio Coding 3
    Параметр Endianness формата : Big
    Идентификатор кодека : 2000
    Продолжительность : 30 м. 42 с.
    Вид битрейта : Постоянный
    Битрейт : 192 Кбит/сек
    Каналы : 2 канала
    Расположение каналов : Front: L R
    Частота : 48, 0 КГц
    Частота кадров : 31, 250 кадров/сек (1536 SPF)
    Битовая глубина : 16 бит
    Метод сжатия : С потерями
    Размер потока : 42, 2 Мбайт (13%)
    Выравнивание : Соединение по промежуткам
    Продолжительность промежутка : 32 мс. (0, 80 видеокадр)
    ServiceKind/String : Complete Main

    Скриншоты для ознакомления



    Все одноименные релизы в Клубе
    Время раздачи: 24/7 (круглосуточно) (до появления первых 3-5 скачавших)

    Собачий день (2015) WEBRip
    загрузка...
    Рейтинг →
     (голосов: 1, оценка 3/5, голосовать можно 1 раз )

    Другие торренты по теме:

  • Собачий пир (1990) SATRip [H.264]
  • Собачий Отель / Hundhotellet (2000) DVDRip
  • Собачий мир / Mundo Cao (2016) DVDRip
  • Большой собачий побег / Ozzy (2016) WEB-DL [H.264 / 720p-LQ]
  • Большой собачий побег / Ozzy (2016) WEB-DLRip
  • Большой собачий побег / Ozzy (2016) WEB-DL [H.264 / 1080p]
  • Большой собачий побег / Ozzy (2016) BDRip [H.264 / 1080p]
  • Большой собачий побег / Ozzy (2016) Blu-ray [H.264 / 1080p]


    • Комментарии (0):

      Информация

      Информация

        Посетители, находящиеся в группе Гости, не могут оставлять комментарии в данной новости.

        ↓ Меню




        ↓ Опрос

        Вы добавили сайт в закладки?
        Да
        Нет


        Top 10 за месяц (Фильмы)