.
Авторизация | Регистрация
Хочешь лучшие торренты? Добавь свой email!
Добавить

Торрент скачать бесплатно

» » Виртуальная революция / Virtual Revolution (2016) BDRemux [H.264 / 1080p] [EN / Ger Sub] торрент скачать бесплатно




    Виртуальная революция / Virtual Revolution (2016) BDRemux [H.264 / 1080p] [EN / Ger Sub] торрент скачать бесплатно

    Опубликовал: Админ | Дата: 10-10-2017, 05:00 | Просмотров: 0

    Производство: США, Франция/Lidderdalei Productions
    Жанр: фантастика
    Режиссер: Ги-Роже Дювер

    Актеры
    Майк Допуд, Джейн Бэдлер, Йохен Хаэгеле, Максимильен Пуллен, Кая Блоксэйж, Петра Силандер, Николас Ван Беверен, Д. Эли Хаддад, Эмильен Де Фалько, Эрик Кайли, Зои Каррафас, Мелисса Марс

    Описание

    2047-й год, Париж, большая часть населения проводит время в сети. Подключенным к виртуальному миру плевать на реальность. Тайный агент Нэш работает на одну из мультинациональных корпораций, стоящих за виртуальными мирами, и выслеживает террористов, угрожающих этой системе.


    Продолжительность: 01: 32: 26
    Качество видео: BDRemux
    Перевод: Отсутствует
    Язык озвучки: Английский
    Субтитры: немецкие
    Видео: AVC, 1920x1080 (16: 9), 19935 kbps, 25 fps, 0.385 bpp
    Аудио: DTS-HD/5.1/48 kHz/1920 kbps/16 bit (Core: 5.1/48 kHz/1509 kbps/16 bit)
    Код: выделить все
    General
    Unique ID Virtual.Revolution.2016.REMUX.BluRay.1080p.AVC.DTS-HD.MA5.1-iFTVirtual.Revolution.2016.REMUX.BluRay.1080p.AVC.DTS-HD.MA5.1-iFT.mkv
    Format : Matroska
    Format version : Version 4/Version 2
    File size : 14.1 GiB
    Duration : 1 h 32 min
    Overall bit rate mode : Variable
    Overall bit rate : 21.9 Mb/s
    Movie name : iFT
    Encoded date : UTC 2017-10-09 12:14:10
    Writing application : mkvmerge v8.5.1 (\'Where you lead I will follow\') 64bit
    Writing library : libebml v1.3.3 + libmatroska v1.4.4
    Video
    ID : 1
    Format : AVC
    Format/Info : Advanced Video Codec
    Format profile :High@L4.1
    Format settings, CABAC : Yes
    Format settings, ReFrames : 4 frames
    Format settings, GOP : M=3, N=24
    Codec ID : V_MPEG4/ISO/AVC
    Duration : 1 h 32 min
    Bit rate mode : Variable
    Bit rate : 19.9 Mb/s
    Maximum bit rate : 35.0 Mb/s
    Width : 1 920 pixels
    Height : 1 080 pixels
    Display aspect ratio : 16:9
    Frame rate mode : Constant
    Frame rate : 25.000 FPS
    Standard : PAL
    Color space : YUV
    Chroma subsampling : 4:2:0
    Bit depth : 8 bits
    Scan type : MBAFF
    Scan type, store method : Interleaved fields
    Scan order : Top Field First
    Bits/(Pixel*Frame) : 0.385
    Stream size : 12.9 GiB (91%)
    Default : No
    Forced : No
    Color range : Limited
    Color primaries : BT.709
    Transfer characteristics : BT.709
    Matrix coefficients : BT.709
    Audio
    ID : 2
    Format : DTS
    Format/Info : Digital Theater Systems
    Format profile : MA/Core
    Mode : 16
    Format settings, Endianness : Big
    Codec ID : A_DTS
    Duration : 1 h 32 min
    Bit rate mode : Variable/Constant
    Bit rate : 1 920 kb/s/1 509 kb/s
    Channel(s) : 6 channels
    Channel positions : Front: L C R, Side: L R, LFE
    Sampling rate : 48.0 kHz
    Frame rate : 93.750 FPS (512 spf)
    Bit depth : 16 bits
    Compression mode : Lossless/Lossy
    Stream size : 1.25 GiB (9%)
    Default : Yes
    Forced : No
    Text
    ID : 3
    Format : PGS
    Muxing mode : zlib
    Codec ID : S_HDMV/PGS
    Codec ID/Info : Picture based subtitle format used on BDs/HD-DVDs
    Duration : 3 s 0 ms
    Bit rate : 1 573 b/s
    Count of elements : 2
    Stream size : 590 Bytes (0%)
    Language : German
    Default : Yes
    Forced : No
    Menu
    00:00:00.000 : en:00:00:00.000
    00:06:03.560 : en:00:06:03.560
    00:14:01.040 : en:00:14:01.040
    00:20:31.840 : en:00:20:31.840
    00:26:56.640 : en:00:26:56.640
    00:33:54.520 : en:00:33:54.520
    00:41:02.200 : en:00:41:02.200
    00:52:46.320 : en:00:52:46.320
    01:02:48.400 : en:01:02:48.400
    01:07:56.800 : en:01:07:56.800
    01:14:21.920 : en:01:14:21.920
    01:20:50.800 : en:01:20:50.800


    Скриншоты для ознакомления



    Все одноименные релизы в Клубе
    Время раздачи: с 13: 00 до 23: 00

    Онлайн видео Виртуальная революция



    Виртуальная революция/Virtual Revolution (2016) BDRemux [H.264/1080p] [EN/Ger Sub]
    загрузка...
    Рейтинг →
     (голосов: 1, оценка 3/5, голосовать можно 1 раз )

    Другие торренты по теме:

  • Виртуальная революция / Virtual Revolution (2016) WEB-DLRip
  • Виртуальная революция / Virtual Revolution (2016) WEB-DLRip


    • Комментарии (0):

      Информация

      Информация

        Посетители, находящиеся в группе Гости, не могут оставлять комментарии в данной новости.

        ↓ Меню




        ↓ Опрос

        Вы добавили сайт в закладки?
        Да
        Нет


        Top 10 за месяц (Фильмы)