.
Авторизация | Регистрация
Хочешь лучшие торренты? Добавь свой email!
Добавить

Торрент скачать бесплатно

» » Избиение младенцев / Slaughter of the Innocents (1993) BDRip [H.264 / 1080p] [AVO] торрент скачать бесплатно




    Избиение младенцев / Slaughter of the Innocents (1993) BDRip [H.264 / 1080p] [AVO] торрент скачать бесплатно

    Опубликовал: Админ | Дата: 10-10-2017, 05:00 | Просмотров: 0

    Производство: США, Shapiro-Glickenhaus Entertainment
    Жанр: Ужасы, Триллер, Детектив
    Режиссер: Джеймс Гликенхаус

    Актеры
    Скотт Гленн, Джесси Кэмерон-Гликенхаус, Шила Тауси, Зитто Казанн , Дарлэнн Флюгел, Армин Шимермэн, Зэйкс Мокэй, Хенри Браун, Кевин Сорбо

    Описание

    Маньяка-убийцу, который расправляется с маленькими детьми, возомнив себя словно Ноем, обязанным взять в свой ковчег каждой твари по паре, ищет не только агент ФБР, но и его отпрыск-вундеркинд, довольно рано увлёкшийся расследованием запутанных дел.

    Рейтинг MPAA: R (лицам до 17 лет обязательно присутствие взрослого)
    Релиз от: RG NNM Club Video
    Продолжительность: 01: 43: 40
    Качество видео: BDRip
    Перевод: Авторский х2
    Субтитры: английские
    Видео: AVC/H.264, 1920х1080, ~11, 2 Mbps
    Аудио: AC3, 2 ch, 160 kbps - русский (AVO, Гаврилов)
    Аудио: AC3, 2 ch, 192 kbps - русский (AVO, Володарский)
    Аудио: AC3, 2 ch, 192 kbps - английский

    x264 info: frame I: 1291 Avg QP: 16.41 size: 166107
    x264 info: frame P: 51011 Avg QP: 17.65 size: 76919
    x264 info: frame B: 96820 Avg QP: 18.46 size: 35941
    Format : Matroska
    Format version : Version 4/Version 2
    File size : 8.50 GiB
    Duration : 1h 43mn
    Overall bit rate : 11.7 Mbps
    Movie name : Slaughter Of The Innocents remux 1993 AVO
    Video
    ID : 1
    Format : AVC
    Format/Info : Advanced Video Codec
    Format profile : High@L4.1
    Format settings, CABAC : Yes
    Format settings, ReFrames : 4 frames
    Codec ID : V_MPEG4/ISO/AVC
    Duration : 1h 43mn
    Bit rate : 11.2 Mbps
    Width : 1 920 pixels
    Height : 1 080 pixels
    Display aspect ratio : 16: 9
    Frame rate mode : Constant
    Frame rate : 23.976 fps
    Color space : YUV
    Chroma subsampling : 4: 2: 0
    Bit depth : 8 bits
    Scan type : Progressive
    Bits/(Pixel*Frame) : 0.225
    Stream size : 7.94 GiB (93%)
    Writing library : x264 core 152 r2851M ba24899
    Encoding settings : cabac=1/ref=4/deblock=1: -3: -3/analyse=0x3: 0x113/me=umh/subme=11/psy=1/psy_rd=1.05: 0.10/mixed_ref=1/me_range=24/chroma_me=1/trellis=2/8x8dct=1/cqm=0/deadzone=21, 11/fast_pskip=0/chroma_qp_offset=-3/threads=5/lookahead_threads=1/sliced_threads=0/nr=0/decimate=1/interlaced=0/bluray_compat=0/constrained_intra=0/bframes=9/b_pyramid=2/b_adapt=2/b_bias=0/direct=1/weightb=1/open_gop=0/weightp=2/keyint=230/keyint_min=23/scenecut=40/intra_refresh=0/rc=2pass/mbtree=0/bitrate=11200/ratetol=1.0/qcomp=0.70/qpmin=3/qpmax=69/qpstep=4/cplxblur=20.0/qblur=0.5/ip_ratio=1.40/pb_ratio=1.30/aq=2: 1.00
    Language : English
    Default : Yes
    Forced : No
    Audio #1
    ID : 2
    Format : AC-3
    Format/Info : Audio Coding 3
    Mode extension : CM (complete main)
    Format settings, Endianness : Big
    Codec ID : A_AC3
    Duration : 1h 43mn
    Bit rate mode : Constant
    Bit rate : 160 Kbps
    Channel(s) : 2 channels
    Channel positions : Front: L R
    Sampling rate : 48.0 KHz
    Bit depth : 16 bits
    Compression mode : Lossy
    Stream size : 119 MiB (1%)
    Title : AVO А. Гаврилов
    Language : Russian
    Default : Yes
    Forced : No
    Audio #2
    ID : 3
    Format : AC-3
    Format/Info : Audio Coding 3
    Mode extension : CM (complete main)
    Format settings, Endianness : Big
    Codec ID : A_AC3
    Duration : 1h 43mn
    Bit rate mode : Constant
    Bit rate : 192 Kbps
    Channel(s) : 2 channels
    Channel positions : Front: L R
    Sampling rate : 48.0 KHz
    Bit depth : 16 bits
    Compression mode : Lossy
    Stream size : 142 MiB (2%)
    Title : Володарский
    Language : Russian
    Default : No
    Forced : No
    Audio #3
    ID : 4
    Format : AC-3
    Format/Info : Audio Coding 3
    Mode extension : CM (complete main)
    Format settings, Endianness : Big
    Codec ID : A_AC3
    Duration : 1h 43mn
    Bit rate mode : Constant
    Bit rate : 192 Kbps
    Channel(s) : 2 channels
    Channel positions : Front: L R
    Sampling rate : 48.0 KHz
    Bit depth : 16 bits
    Compression mode : Lossy
    Stream size : 142 MiB (2%)
    Language : English
    Default : No
    Forced : No
    Text
    ID : 5
    Format : UTF-8
    Codec ID : S_TEXT/UTF8
    Codec ID/Info : UTF-8 Plain Text
    Language : English
    Default : Yes
    Forced : No
    Режиссер здесь снял своего сына Джесси. Что интересно, героя юного артиста зовут тоже Джесси. Он снялся еще в двух фильмах, и в них его героев тоже звали так же.
    После этого он больше нигде не снимался, сейчас занимает должность директора агрохимической компании;его отец тоже отошел от кинематографа и работает на Уолл-стрит.

    Скриншоты для ознакомления



    Все релизы фильма Избиение младенцев на NNM-Club
    Время раздачи: 24/7 (до появления первых 3-5 скачавших)

    Онлайн видео Избиение младенцев



    Избиение младенцев/Slaughter of the Innocents (1993) BDRip [H.264/1080p] [AVO]
    загрузка...
    Рейтинг →
     (голосов: 1, оценка 5/5, голосовать можно 1 раз )

    Другие торренты по теме:



      Комментарии (0):

      Информация

      Информация

        Посетители, находящиеся в группе Гости, не могут оставлять комментарии в данной новости.

        ↓ Меню




        ↓ Опрос

        Вы добавили сайт в закладки?
        Да
        Нет


        Top 10 за месяц (Фильмы)