.
Авторизация | Регистрация
Хочешь лучшие торренты? Добавь свой email!
Добавить

Торрент скачать бесплатно

» » Молчание / Silence (2016) DVD9 [Custom] торрент скачать бесплатно




    Молчание / Silence (2016) DVD9 [Custom] торрент скачать бесплатно

    Опубликовал: Админ | Дата: 10-10-2017, 05:00 | Просмотров: 0

    Производство: США, Тайвань, Мексика/Paramount, FГЎbrica de Cine, AI-Film
    Жанр: Драма, приключения, история
    Режиссер: Мартин Скорсезе
    Продюсер: Витторио Чекки Гори, Барбара Де Фина, Рэндолл Эмметт

    Актеры
    Эндрю Гарфилд, Адам Драйвер, Лиам Нисон, Таданобу Асано, Киран Хайндс, Иссэй Огата, Синья Цукамото, Ёси Оида, Ёсукэ Кубодзука, Каору Эндо

    Описание

    В XVII веке два священника-иезуита подвергаются насилию и преследованиям во время странствия по Японии, куда они приехали с целью найти своего наставника и распространять христианское Евангелие.

    Возраст: 18+ (зрителям, достигшим 18 лет. запрещено для детей)
    Рейтинг MPAA: R (лицам до 17 лет обязательно присутствие взрослого)
    Дата мировой премьеры: 29 ноября 2016
    Дата премьеры в России: 26 января 2017, Централ Партнершип

    Продолжительность: 02: 40: 59
    Качество видео: DVD9 BD - DVD
    Перевод: Дублированный (iTunes)
    Субтитры: Русские, английские
    Доп. материалы: Отсутствуют
    Видео: MPEG-2, 720x480@853x480 (NTSC 16: 9), ~6800 Kbps
    Аудио 1: AC3 5.1, 384 Kbps (Русский - дублированный)
    Аудио 2: AC3 5.1, 448 Kbps (Английский - оригинал)
    Код: выделить все
    Title: Silence (2016) DVD9 [BD-DVD]
    Size: 7.79 Gb ( 8 168 940, 00 KBytes ) - DVD-9
    Enabled regions: 1, 2, 3, 4, 5, 6, 7, 8
    VTS_01 :
    Play Length: 02:40:59
    Video: NTSC 16:9 (720x480) VBR, Auto Letterboxed
    Audio:
    Russian (Dolby AC3, 6 ch)
    English (Dolby AC3, 6 ch)
    Subtitles:
    Russian
    English
    Russian
    * Menus Information *
    VIDEO_TS Menu
    Video:
    NTSC 16:9 (720x480) VBR
    Auto Letterboxed
    Audio:
    Not specified (Dolby AC3, 6 ch)
    Russian Language Unit :
    Title Menu
    VTS_01 Menu
    Video:
    NTSC 16:9 (720x480) VBR
    Auto Letterboxed
    Audio:
    Not specified (Dolby AC3, 2 ch)
    Russian Language Unit :
    Root Menu
    Audio Menu
    Chapter (PTT) Menu
    Код: выделить все
    Общее
    Полное имя : V:TorrentsSilence (2016) DVD9 [BD-DVD]VIDEO_TSVTS_01_3.VOB
    Формат : MPEG-PS
    Размер файла : 1024 Мбайт
    Продолжительность : 18 м.
    Режим общего битрейта : Переменный
    Общий поток : 7797 Кбит/сек
    Видео
    Идентификатор : 224 (0xE0)
    Формат : MPEG Video
    Версия формата : Version 2
    Профиль формата : Main@Main
    Параметр BVOP формата : Да
    Параметр матрицы формата : Выборочная
    Параметр GOP формата : Variable
    Продолжительность : 18 м.
    Вид битрейта : Переменный
    Битрейт : 6810 Кбит/сек
    Максимальный битрейт : 8800 Кбит/сек
    Ширина : 720 пикселей
    Высота : 480 пикселей
    Соотношение сторон : 16:9
    Частота кадров : 23, 976 (24000/1001) кадра/сек
    Цветовое пространство : YUV
    Субдискретизация насыщенности : 4:2:0
    Битовая глубина : 8 бит
    Тип развёртки : Прогрессивная
    Порядок развёртки : 2:3 Pulldown
    Метод сжатия : С потерями
    Бит/(Пиксели*Кадры) : 0.822
    Временной код первого кадра : 00:44:31:11
    Оригинал временного кода : Group of pictures t_head
    Размер потока : 894 Мбайт (87%)
    Аудио #1
    Идентификатор : 189 (0xBD)-128 (0x80)
    Формат : AC-3
    Формат/Информация : Audio Coding 3
    Расширение режима : CM (complete main)
    Параметр Endianness формата : Big
    Режим смешивания : DVD-Video
    Продолжительность : 18 м.
    Вид битрейта : Постоянный
    Битрейт : 384 Кбит/сек
    Каналы : 6 каналов
    Расположение каналов : Front: L C R, Side: L R, LFE
    Частота : 48, 0 КГц
    Частота кадров : 31, 250 кадров/сек (1536 spf)
    Метод сжатия : С потерями
    Задержка видео : -649 мс.
    Размер потока : 50, 4 Мбайт (5%)
    Аудио #2
    Идентификатор : 189 (0xBD)-129 (0x81)
    Формат : AC-3
    Формат/Информация : Audio Coding 3
    Расширение режима : CM (complete main)
    Параметр Endianness формата : Big
    Режим смешивания : DVD-Video
    Продолжительность : 18 м.
    Вид битрейта : Постоянный
    Битрейт : 448 Кбит/сек
    Каналы : 6 каналов
    Расположение каналов : Front: L C R, Side: L R, LFE
    Частота : 48, 0 КГц
    Частота кадров : 31, 250 кадров/сек (1536 spf)
    Метод сжатия : С потерями
    Задержка видео : -649 мс.
    Размер потока : 58, 8 Мбайт (6%)
    Текст #1
    Идентификатор : 189 (0xBD)-32 (0x20)
    Формат : RLE
    Формат/Информация : Run-length encoding
    Режим смешивания : DVD-Video
    Продолжительность : 17 м.
    Задержка видео : 15 с.
    Текст #2
    Идентификатор : 189 (0xBD)-33 (0x21)
    Формат : RLE
    Формат/Информация : Run-length encoding
    Режим смешивания : DVD-Video
    Меню
    Продолжительность : 17 м.


    Онлайн видео Молчание



    Молчание/Silence (2016) DVD9 [Custom]
    загрузка...
    Рейтинг →
     (голосов: 1, оценка 5/5, голосовать можно 1 раз )

    Другие торренты по теме:

  • Молчание / Silence (2016) DVDScr [EN]
  • Молчание / Silence (2016) Screener
  • Молчание / Silence (2016) WEB-DL [H.264 / 1080p-LQ] [EN / EN Sub]
  • Молчание / Silence (2016) WEB-DLRip
  • Молчание / Silence (2016) WEB-DLRip [H.264 / 1080p-LQ]
  • Молчание / Silence (2016) BDRip [H.264 / 1080p] [EN, Fr / Fr Sub]
  • Молчание / Silence (2016) BDRip [H.264 / 720p] [EN / EN Sub]
  • Молчание / Silence (2016) BDRemux [H.264 / 1080p] [EN / EN, Fr, Sp Sub]


    • Комментарии (0):

      Информация

      Информация

        Посетители, находящиеся в группе Гости, не могут оставлять комментарии в данной новости.

        ↓ Меню




        ↓ Опрос

        Вы добавили сайт в закладки?
        Да
        Нет


        Top 10 за месяц (Фильмы)