.
Авторизация | Регистрация
Хочешь лучшие торренты? Добавь свой email!
Добавить

Торрент скачать бесплатно

» » Золото / Gold (2016) DVD9 [Custom] торрент скачать бесплатно




    Золото / Gold (2016) DVD9 [Custom] торрент скачать бесплатно

    Опубликовал: Админ | Дата: 10-10-2017, 05:00 | Просмотров: 0

    Производство: США/TWC-Dimension, Black Bear Pictures, Hwy61
    Жанр: Триллер, драма, приключения
    Режиссер: Стивен Гейган
    Продюсер: Патрик Мэссет, Мэттью МакКонахи, Джон Зинмен

    Актеры
    Мэттью МакКонахи, Эдгар Рамирес, Брайс Даллас Ховард, Кори Столл, Тоби Кеббелл, Билл Кэмп, Джошуа Харто, Тимоти С. Саймонс, Крэйг Т. Нельсон, Мэйкон Блэр

    Описание

    История Кенни Уэллса — современного золотоискателя, хваткого дельца и мечтателя, который отчаянно ждёт шанса переломить судьбу. Оставшись без особых вариантов, Уэллс находит себе такого же неудачливого напарника — геолога, чтобы реализовать грандиозный план: найти золото в неизведанных индонезийских джунглях.

    Возраст: 18+ (зрителям, достигшим 18 лет. запрещено для детей)
    Рейтинг MPAA: R (лицам до 17 лет обязательно присутствие взрослого)
    Дата мировой премьеры: 29 декабря 2016
    Дата премьеры в России: 2 марта 2017, Централ Партнершип

    Продолжительность: 02: 00: 13
    Качество видео: DVD9 BD - DVD
    Перевод: Дублированный (iTunes), Авторский (одноголосый закадровый)
    Субтитры: Русские, английские
    Доп. материалы: Отсутствуют
    Видео: MPEG-2, 720x480@853x480 (NTSC 16: 9), ~7700 Kbps
    Аудио 1: AC3 5.1, 384 Kbps (Русский - дублированный)
    Аудио 2: DTS 5.1, 755 Kbps (Русский - одноголосый закадровый, В. Дохалов)
    Аудио 3: AC3 5.1, 448 Kbps (Английский - оригинал)
    Код: выделить все
    Title: Gold (2016) DVD9 [BD-DVD]
    Size: 7.86 Gb ( 8 239 510, 00 KBytes ) - DVD-9
    Enabled regions: 1, 2, 3, 4, 5, 6, 7, 8
    VTS_01 :
    Play Length: 02:00:13
    Video: NTSC 16:9 (720x480) VBR, Auto Letterboxed
    Audio:
    Russian (Dolby AC3, 6 ch)
    Russian (DTS, 6 ch)
    English (Dolby AC3, 6 ch)
    Subtitles:
    Russian
    English
    Russian
    * Menus Information *
    VIDEO_TS Menu
    Video:
    NTSC 4:3 (720x480) VBR
    Auto PanScan, Auto Letterboxed
    Language Unit :
    VTS_01 Menu
    Video:
    NTSC 16:9 (720x480) VBR
    Auto Letterboxed
    Audio:
    Not specified (Dolby AC3, 2 ch)
    Russian Language Unit :
    Root Menu
    Audio Menu
    Chapter (PTT) Menu
    Код: выделить все
    Общее
    Полное имя : V:TorrentsGold (2016) DVD9 [BD-DVD]VIDEO_TSVTS_01_2.VOB
    Формат : MPEG-PS
    Размер файла : 1024 Мбайт
    Продолжительность : 15 м.
    Режим общего битрейта : Переменный
    Общий поток : 9457 Кбит/сек
    Видео
    Идентификатор : 224 (0xE0)
    Формат : MPEG Video
    Версия формата : Version 2
    Профиль формата : Main@Main
    Параметр BVOP формата : Да
    Параметр матрицы формата : Выборочная
    Параметр GOP формата : Variable
    Продолжительность : 15 м.
    Вид битрейта : Переменный
    Битрейт : 7683 Кбит/сек
    Максимальный битрейт : 8100 Кбит/сек
    Ширина : 720 пикселей
    Высота : 480 пикселей
    Соотношение сторон : 16:9
    Частота кадров : 23, 976 (24000/1001) кадра/сек
    Цветовое пространство : YUV
    Субдискретизация насыщенности : 4:2:0
    Битовая глубина : 8 бит
    Тип развёртки : Прогрессивная
    Порядок развёртки : 2:3 Pulldown
    Метод сжатия : С потерями
    Бит/(Пиксели*Кадры) : 0.927
    Временной код первого кадра : 00:15:34:06
    Оригинал временного кода : Group of pictures t_head
    Размер потока : 832 Мбайт (81%)
    Аудио #1
    Идентификатор : 189 (0xBD)-128 (0x80)
    Формат : AC-3
    Формат/Информация : Audio Coding 3
    Расширение режима : CM (complete main)
    Параметр Endianness формата : Big
    Режим смешивания : DVD-Video
    Продолжительность : 15 м.
    Вид битрейта : Постоянный
    Битрейт : 384 Кбит/сек
    Каналы : 6 каналов
    Расположение каналов : Front: L C R, Side: L R, LFE
    Частота : 48, 0 КГц
    Частота кадров : 31, 250 кадров/сек (1536 spf)
    Метод сжатия : С потерями
    Задержка видео : -657 мс.
    Размер потока : 41, 6 Мбайт (4%)
    Аудио #2
    Идентификатор : 189 (0xBD)-130 (0x82)
    Формат : AC-3
    Формат/Информация : Audio Coding 3
    Расширение режима : CM (complete main)
    Параметр Endianness формата : Big
    Режим смешивания : DVD-Video
    Продолжительность : 15 м.
    Вид битрейта : Постоянный
    Битрейт : 448 Кбит/сек
    Каналы : 6 каналов
    Расположение каналов : Front: L C R, Side: L R, LFE
    Частота : 48, 0 КГц
    Частота кадров : 31, 250 кадров/сек (1536 spf)
    Метод сжатия : С потерями
    Задержка видео : -657 мс.
    Размер потока : 48, 5 Мбайт (5%)
    Аудио #3
    Идентификатор : 189 (0xBD)-137 (0x89)
    Формат : DTS
    Формат/Информация : Digital Theater Systems
    Режим : 16
    Параметр Endianness формата : Big
    Режим смешивания : DVD-Video
    Продолжительность : 15 м.
    Вид битрейта : Постоянный
    Битрейт : 755 Кбит/сек
    Каналы : 6 каналов
    Расположение каналов : Front: L C R, Side: L R, LFE
    Частота : 48, 0 КГц
    Частота кадров : 93, 750 кадра/сек (512 spf)
    Битовая глубина : 24 бит
    Метод сжатия : С потерями
    Задержка видео : -689 мс.
    Размер потока : 81, 7 Мбайт (8%)
    Текст #1
    Идентификатор : 189 (0xBD)-32 (0x20)
    Формат : RLE
    Формат/Информация : Run-length encoding
    Режим смешивания : DVD-Video
    Продолжительность : 14 м.
    Задержка видео : 1 с. 18 мс.
    Текст #2
    Идентификатор : 189 (0xBD)-33 (0x21)
    Формат : RLE
    Формат/Информация : Run-length encoding
    Режим смешивания : DVD-Video
    Продолжительность : 14 м.
    Задержка видео : 417 мс.
    Меню
    Продолжительность : 14 м.


    Онлайн видео Золото



    Золото/Gold (2016) DVD9 [Custom]
    загрузка...
    Рейтинг →
     (голосов: 1, оценка 3/5, голосовать можно 1 раз )

    Другие торренты по теме:

  • Золото / Gold (2016) Screener
  • Золото / Gold (2016) DVDScr
  • Золото / Gold (2016) DVDScr [Звук с CamRip]
  • Золото / Gold (2016) DVDScr [AVO]
  • Золото / Gold (2016) WEB-DLRip
  • Золото / Gold (2016) WEB-DL [H.264 / 1080p-LQ]
  • Золото / Gold (2016) WEB-DL [H.264 / 1080p-LQ] [EN / EN Sub]
  • Золото / Gold (2016) BDRip [H.264 / 1080p] [PR]


    • Комментарии (0):

      Информация

      Информация

        Посетители, находящиеся в группе Гости, не могут оставлять комментарии в данной новости.

        ↓ Меню




        ↓ Опрос

        Вы добавили сайт в закладки?
        Да
        Нет


        Top 10 за месяц (Фильмы)