.
Авторизация | Регистрация
Хочешь лучшие торренты? Добавь свой email!
Добавить

Торрент скачать бесплатно

» » Конг: Остров черепа / Kong: Skull Island (2017) DVD5 торрент скачать бесплатно




    Конг: Остров черепа / Kong: Skull Island (2017) DVD5 торрент скачать бесплатно

    Опубликовал: Админ | Дата: 10-10-2017, 05:00 | Просмотров: 0

    Производство: США/Warner Bros. Pictures, Legendary Pictures, Tencent Pictures
    Жанр: Фантастика, фэнтези, боевик, приключения
    Режиссер: Джордан Вот-Робертс
    Продюсер: Дэбби Босси, Edward Cheng, Jennifer Conroy

    Актеры
    Том Хиддлстон, Сэмюэл Л. Джексон, Джон Гудмен, Бри Ларсон, Тянь Цзин, Тоби Кеббелл, Джон Ортис, Кори Хоукинс, Джейсон Митчелл, Ши Уигхэм

    Описание

    На неизвестный остров в Тихом океане попадает команда ученых, военных и искателей приключений. Они вторгаются во владения могучего Конга и тем самым развязывают сражение между человеком и природой. Очень скоро исследовательская миссия превращается в игру на выживание, ее участники вынуждены буквально прорубать себе путь к спасению.

    Возраст: 16+ (зрителям, достигшим 16 лет)
    Рейтинг MPAA: PG-13 (детям до 13 лет просмотр нежелателен)
    Дата мировой премьеры: 28 февраля 2017
    Дата российской премьеры: 9 марта 2017, Каро-Премьер

    Продолжительность: 01: 53: 32
    Качество видео: DVD5
    Перевод: Дублированный (лицензия)
    Субтитры: Русские, английские, чешские, эстонские, исландские, латышские, литовские, португальские
    Видео: MPEG-2, 720x576@1024x576 (PAL 16: 9), ~4700 Kbps
    Аудио 1: AC3 5.1, 384 Kbps (Английский - оригинал)
    Аудио 2: AC3 5.1, 384 Kbps (Русский - дублированный)
    Код: выделить все
    Title: Kong. Skull Island (2017) DVD5
    Size: 4.37 Gb ( 4 587 268, 00 KBytes ) - DVD-5
    Enabled regions: 1, 2, 3, 4, 5, 6, 7, 8
    VTS_01 :
    Play Length: 01:53:32+00:00:00+00:00:01+00:00:08
    Video: PAL 16:9 (720x576) VBR, Auto Letterboxed
    Audio:
    English (Dolby AC3, 6 ch)
    Russian (Dolby AC3, 6 ch)
    Subtitles:
    English
    Czech(Ceske)
    Estonian
    Islenska
    Latvian
    Lithuanian
    Portugues
    Russian
    Czech(Ceske)
    Russian
    * Menus Information *
    VIDEO_TS Menu
    Video:
    PAL 16:9 (720x576) VBR
    Auto PanScan
    Language Unit :
    Title Menu
    VTS_01 Menu
    Video:
    PAL 16:9 (720x576) VBR
    Auto PanScan
    Audio:
    Not specified (Dolby AC3, 2 ch)
    English Language Unit :
    Root Menu
    Код: выделить все
    Общее
    Полное имя : G:ВидеоKong. Skull Island (2017) DVD5VIDEO_TSVTS_01_2.VOB
    Формат : MPEG-PS
    Размер файла : 1024 Мбайт
    Продолжительность : 25 м.
    Режим общего битрейта : Переменный
    Общий поток : 5597 Кбит/сек
    Видео
    Идентификатор : 224 (0xE0)
    Формат : MPEG Video
    Версия формата : Version 2
    Профиль формата : Main@Main
    Параметр BVOP формата : Да
    Параметр матрицы формата : Выборочная
    Параметр GOP формата : Variable
    Продолжительность : 25 м.
    Вид битрейта : Переменный
    Битрейт : 4717 Кбит/сек
    Максимальный битрейт : 7661 Кбит/сек
    Ширина : 720 пикселей
    Высота : 576 пикселей
    Соотношение сторон : 16:9
    Частота кадров : 25, 000 кадров/сек
    Стандарт вещания : PAL
    Цветовое пространство : YUV
    Субдискретизация насыщенности : 4:2:0
    Битовая глубина : 8 бит
    Тип развёртки : Прогрессивная
    Порядок развёртки : Верхнее поле первое
    Метод сжатия : С потерями
    Бит/(Пиксели*Кадры) : 0.455
    Временной код первого кадра : 00:26:38:09
    Оригинал временного кода : Group of pictures t_head
    Размер потока : 863 Мбайт (84%)
    Аудио #1
    Идентификатор : 189 (0xBD)-128 (0x80)
    Формат : AC-3
    Формат/Информация : Audio Coding 3
    Расширение режима : CM (complete main)
    Параметр Endianness формата : Big
    Режим смешивания : DVD-Video
    Продолжительность : 25 м.
    Вид битрейта : Постоянный
    Битрейт : 384 Кбит/сек
    Каналы : 6 каналов
    Расположение каналов : Front: L C R, Side: L R, LFE
    Частота : 48, 0 КГц
    Частота кадров : 31, 250 кадров/сек (1536 spf)
    Метод сжатия : С потерями
    Задержка видео : -520 мс.
    Размер потока : 70, 3 Мбайт (7%)
    Аудио #2
    Идентификатор : 189 (0xBD)-130 (0x82)
    Формат : AC-3
    Формат/Информация : Audio Coding 3
    Расширение режима : CM (complete main)
    Параметр Endianness формата : Big
    Режим смешивания : DVD-Video
    Продолжительность : 25 м.
    Вид битрейта : Постоянный
    Битрейт : 384 Кбит/сек
    Каналы : 6 каналов
    Расположение каналов : Front: L C R, Side: L R, LFE
    Частота : 48, 0 КГц
    Частота кадров : 31, 250 кадров/сек (1536 spf)
    Метод сжатия : С потерями
    Задержка видео : -520 мс.
    Размер потока : 70, 3 Мбайт (7%)
    Текст #1
    Идентификатор : 189 (0xBD)-32 (0x20)
    Формат : RLE
    Формат/Информация : Run-length encoding
    Режим смешивания : DVD-Video
    Текст #2
    Идентификатор : 189 (0xBD)-33 (0x21)
    Формат : RLE
    Формат/Информация : Run-length encoding
    Режим смешивания : DVD-Video
    Текст #3
    Идентификатор : 189 (0xBD)-34 (0x22)
    Формат : RLE
    Формат/Информация : Run-length encoding
    Режим смешивания : DVD-Video
    Текст #4
    Идентификатор : 189 (0xBD)-35 (0x23)
    Формат : RLE
    Формат/Информация : Run-length encoding
    Режим смешивания : DVD-Video
    Текст #5
    Идентификатор : 189 (0xBD)-36 (0x24)
    Формат : RLE
    Формат/Информация : Run-length encoding
    Режим смешивания : DVD-Video
    Текст #6
    Идентификатор : 189 (0xBD)-37 (0x25)
    Формат : RLE
    Формат/Информация : Run-length encoding
    Режим смешивания : DVD-Video
    Текст #7
    Идентификатор : 189 (0xBD)-38 (0x26)
    Формат : RLE
    Формат/Информация : Run-length encoding
    Режим смешивания : DVD-Video
    Текст #8
    Идентификатор : 189 (0xBD)-39 (0x27)
    Формат : RLE
    Формат/Информация : Run-length encoding
    Режим смешивания : DVD-Video
    Меню


    Онлайн видео Конг: Остров черепа



    Конг: Остров черепа/Kong: Skull Island (2017) DVD5
    загрузка...
    Рейтинг →
     (голосов: 1, оценка 5/5, голосовать можно 1 раз )

    Другие торренты по теме:

  • Кинг Конг: Остров черепа / Kong: Skull Island (2017) WEBRip [H.264 / 1080p] [Трейлер]
  • Конг: Остров черепа / Kong: Skull Island (2017) TS
  • Henry Jackman - Kong: Skull Island / Конг: Остров черепа (Original Motion Picture Soundtrack) (2017) [FLAC|Lossless|WEB-DL|tracks]<Soundtrack>
  • Henry Jackman - Kong: Skull Island / Конг: Остров черепа (Original Motion Picture Soundtrack) (2017) [MP3|320 кб / с]<Soundtrack>
  • VA - Kong: Skull Island / Конг: Остров черепа (Unofficial Soundtrack) (2017) [MP3|320 кб / с]<Rock, Rock & Roll, Jazz>
  • Тим Леббон | Конг: Остров черепа (2017) [FB2]
  • Конг: Остров черепа / Kong: Skull Island (2017) WEBRip [H.264 / 1080p-LQ] [Звук с TS] [AD]
  • Конг: Остров черепа / Kong: Skull Island (2017) WEBRip [H.264 / 1080p-LQ] [AD]


    • Комментарии (0):

      Информация

      Информация

        Посетители, находящиеся в группе Гости, не могут оставлять комментарии в данной новости.

        ↓ Меню




        ↓ Опрос

        Вы добавили сайт в закладки?
        Да
        Нет


        Top 10 за месяц (Фильмы)