.
Авторизация | Регистрация
Хочешь лучшие торренты? Добавь свой email!
Добавить

Торрент скачать бесплатно

» » Культ Чаки / Cult of Chucky (2017) BDRip [MVO] торрент скачать бесплатно




    Культ Чаки / Cult of Chucky (2017) BDRip [MVO] торрент скачать бесплатно

    Опубликовал: Админ | Дата: 10-10-2017, 05:00 | Просмотров: 0

    Производство: США, Indie Entertainment
    Жанр: Ужасы, триллер
    Режиссер: Дон Манчини

    Актеры
    Дженнифер Тилли, Фиона Дуриф, Брэд Дуриф, Алекс Винсент, Майкл Терриоль, Элизабет Розен, Зак Сантьяго, Грэйс Линн Кунг, Али Татарин, Саммер Х. Хауэлл

    Описание

    Ника Пирс 4 года провела в лечебнице. Ее убеждают в том, что она виновна в гибели семьи, а не кукла Чаки. Когда лечащий врач предлагает новый вариант терапии с куклой с добрым лицом, в лечебнице начинают погибать люди, и Ника начинает думать, что ее кошмары реальны. Энди Барклай повзрослел и спешит на помощь, но ему хочет помешать Тиффани - невеста Чаки, готовая на все, чтобы помочь возлюбленному.

    Рейтинг MPAA: R (лицам до 17 лет обязательно присутствие взрослого)
    Дата мировой премьеры: 24 августа 2017
    Продолжительность: 01: 30: 56
    Качество видео: BDRip
    Перевод: Многоголосый, закадровый | ViruseProject
    Субтитры: Отсутствуют
    Видео: XviD, 688x384, 1 842 Kbps
    Аудио: AC3, 2 ch, 448 Кбит/с

    General
    Complete name : O: Cult.of.Chucky.2017.UNRATED.BDRip.1.46Gb.MVO.avi
    Format : AVI
    Format/Info : Audio Video Interleave
    File size : 1.46 GiB
    Duration : 1h 30mn
    Overall bit rate : 2 299 Kbps
    Writing application : VirtualDubMod 1.5.10.2 (build 2540/release)
    Writing library : VirtualDubMod build 2540/release
    Video
    ID : 0
    Format : MPEG-4 Visual
    Format profile : Advanced Simple@L5
    Format settings, BVOP : Yes
    Format settings, QPel : No
    Format settings, GMC : No warppoints
    Format settings, Matrix : Custom
    Codec ID : XVID
    Codec ID/Hint : XviD
    Duration : 1h 30mn
    Bit rate : 1 842 Kbps
    Width : 688 pixels
    Height : 384 pixels
    Display aspect ratio : 16: 9
    Frame rate : 23.976 fps
    Resolution : 8 bits
    Colorimetry : 4: 2: 0
    Scan type : Progressive
    Bits/(Pixel*Frame) : 0.291
    Stream size : 1.17 GiB (80%)
    Writing library : XviD 73
    Audio
    ID : 1
    Format : AC-3
    Format/Info : Audio Coding 3
    Codec ID : 2000
    Duration : 1h 30mn
    Bit rate mode : Constant
    Bit rate : 448 Kbps
    Channel(s) : 2 channels
    Channel positions : L R
    Sampling rate : 48.0 KHz
    Stream size : 291 MiB (19%)
    Alignment : Split accross interleaves
    Interleave, duration : 42 ms (1.00 video frame)
    Interleave, preload duration : 500 ms

    Скриншоты для ознакомления



    Все релизы фильма Культ Чаки на NNM-Club
    Время раздачи: Круглосуточно до 10 скачавших

    Онлайн видео Культ Чаки



    Культ Чаки/Cult of Chucky (2017) BDRip [MVO]
    загрузка...
    Рейтинг →
     (голосов: 1, оценка 5/5, голосовать можно 1 раз )

    Другие торренты по теме:

  • Культ Чаки / Cult of Chucky (2017) DVDRip [VO]
  • Культ Чаки / Cult of Chucky (2017) BDRip [H.264 / 1080p] [VO]
  • Культ Чаки / Cult of Chucky (2017) BDRemux [H.264 / 1080p] [EN / EN, Fr, Sp Sub]
  • Культ Чаки / Cult of Chucky (2017) BDRemux [H.264 / 1080p] [VO]


    • Комментарии (0):

      Информация

      Информация

        Посетители, находящиеся в группе Гости, не могут оставлять комментарии в данной новости.

        ↓ Меню




        ↓ Опрос

        Вы добавили сайт в закладки?
        Да
        Нет


        Top 10 за месяц (Фильмы)