.
Авторизация | Регистрация
Хочешь лучшие торренты? Добавь свой email!
Добавить

Торрент скачать бесплатно

» » Бегущий по лезвию 2049 / Blade Runner 2049 (2017) CamRip [AD] торрент скачать бесплатно




    Бегущий по лезвию 2049 / Blade Runner 2049 (2017) CamRip [AD] торрент скачать бесплатно

    Опубликовал: Админ | Дата: 10-10-2017, 05:00 | Просмотров: 0

    Производство: США, Великобритания, Канада/16: 14 Entertainment, Alcon Entertainment, Columbia Pictures, Scott Free Productions, Thunderbird Films, Torridon Films, Warner Bros. Pictures
    Жанр: Фантастика, Триллер
    Режиссер: Дени Вильнёв
    Продюсер: Йель Бадик, Дэна Белкастро, Билл Карраро

    Актеры
    Райан Гослинг, Харрисон Форд, Ана де Армас, Сильвия Хукс, Робин Райт, Маккензи Дэвис, Карла Юри, Ленни Джеймс, Дэйв Батиста, Джаред Лето

    Описание

    В недалеком будущем мир населен людьми и репликантами, созданными выполнять самую тяжелую работу. Работа офицера полиции Кей — держать репликантов под контролем в условиях нарастающего напряжения… Пока он случайно не становится обладателем секретной информации, которая ставит под угрозу существование всего человечества. Желая найти ключ к разгадке, Кей решает разыскать Рика Декарда, бывшего офицера специального подразделения полиции Лос-Анджелеса, который бесследно исчез много лет назад.

    Возраст: 18+ (зрителям, достигшим 18 лет. запрещено для детей)
    Рейтинг MPAA: R (лицам до 17 лет обязательно присутствие взрослого)
    Дата мировой премьеры: 4 октября 2017
    Дата российской премьеры: 5 октября 2017, WDSSPR
    Продолжительность: 02: 32: 22
    Качество видео: CamRip
    Перевод: Дублированный
    Субтитры: отсутствуют
    Реклама: Присутствуют текстовые вставки рекламы
    Видео: XviD, 720x304, 1701 Kbps
    Аудио: 48 kHz, AC3 Dolby Digital, 2/0 (L, R) ch, ~192 kbps
    Общее
    Полное имя : D: Бегущий.по.лезвию.2049.2017.CamRip.NNMClub.avi
    Формат : AVI
    Формат/Информация : Audio Video Interleave
    Профиль формата : OpenDML
    Размер файла : 2, 03 Гбайт
    Продолжительность : 2 ч. 32 м.
    Общий поток : 1906 Кбит/сек
    Программа кодирования : VirtualDubMod 1.5.10.2 (build 2540/release)
    Библиотека кодирования : VirtualDub build 35491/release
    Видео
    Идентификатор : 0
    Формат : MPEG-4 Visual
    Профиль формата : Advanced Simple@L5
    Параметр BVOP формата : 2
    Параметр QPel формата : Нет
    Параметр GMC формата : Без точки перехода
    Параметр матрицы формата : Default (MPEG)
    Идентификатор кодека : XVID
    Идентификатор кодека/Подсказка : XviD
    Продолжительность : 2 ч. 32 м.
    Битрейт : 1701 Кбит/сек
    Ширина : 720 пикселей
    Высота : 304 пикселя
    Соотношение сторон : 2, 35: 1
    Частота кадров : 23, 976 (24000/1001) кадра/сек
    Цветовое пространство : YUV
    Субдискретизация насыщенности : 4: 2: 0
    Битовая глубина : 8 бит
    Тип развёртки : Прогрессивная
    Метод сжатия : С потерями
    Бит/(Пиксели*Кадры) : 0.324
    Размер потока : 1, 81 Гбайт (89%)
    Библиотека кодирования : XviD 1.2.1 (UTC 2008-12-04)
    Аудио
    Идентификатор : 1
    Формат : AC-3
    Формат/Информация : Audio Coding 3
    Параметр Endianness формата : Big
    Идентификатор кодека : 2000
    Продолжительность : 2 ч. 32 м.
    Вид битрейта : Постоянный
    Битрейт : 192 Кбит/сек
    Каналы : 2 канала
    Расположение каналов : Front: L R
    Частота : 48, 0 КГц
    Частота кадров : 31, 250 кадров/сек (1536 SPF)
    Битовая глубина : 16 бит
    Метод сжатия : С потерями
    Размер потока : 209 Мбайт (10%)
    Выравнивание : Разделение по промежуткам
    Продолжительность промежутка : 42 мс. (1, 00 видеокадр)
    Время предзагрузки промежутка : 500 мс.
    ServiceKind/String : Complete Main

    Скриншоты для ознакомления



    Все одноименные релизы в Клубе
    Время раздачи: 24/7 (до появления первых 3-5 скачавших)

    Бегущий по лезвию 2049/Blade Runner 2049 (2017) CamRip [AD]
    загрузка...
    Рейтинг →
     (голосов: 1, оценка 3/5, голосовать можно 1 раз )

    Другие торренты по теме:

  • Бегущий по лезвию / Blade Runner (1982) HDRip [Final Cut] скачать через торрент бесплатно
  • Бегущий по лезвию / Blade Runner (1982) BDRip [H.264 / 1080p] [The Final Cut]
  • Бегущий по лезвию / Blade Runner (1982) [Final Cut] AC3 5.1 [Solod]
  • Бегущий по лезвию бритвы / Blade Runner (1982) BDRip [H.265 / 720р-LQ] [Final Cut]
  • Бегущий по лезвию 2049 / Blade Runner 2049 (2017) WEBRip [H.264 / 1080p] [Трейлер#2] [EN]
  • Blade Runner: Black Out 2022 | Бегущий по лезвию: отключение света 2022 [2017, Special, 1 эп.] WEB-DL 1080p raw
  • Hans Zimmer & Benjamin Wallfisch - Blade Runner 2049 / Бегущий по лезвию 2049 (Original Motion Picture Soundtrack) (2017) [MP3|320 кб / с]<Soundtrack>
  • Hans Zimmer & Benjamin Wallfisch - Blade Runner 2049 / Бегущий по лезвию 2049 (Original Motion Picture Soundtrack) (2017) [FLAC|Lossless|WEB-DL|tracks]<Soundtrack>


    • Комментарии (0):

      Информация

      Информация

        Посетители, находящиеся в группе Гости, не могут оставлять комментарии в данной новости.

        ↓ Меню




        ↓ Опрос

        Вы добавили сайт в закладки?
        Да
        Нет


        Top 10 за месяц (Фильмы)