.
Авторизация | Регистрация
Хочешь лучшие торренты? Добавь свой email!
Добавить

Торрент скачать бесплатно

» » Призрачные войны / Война с призраками / Ghost Wars (2017) WEB-DL [H.264 / 1080p-LQ] (сезон 1, серии 1 из 13) OmskBird (обновляемая) [AD] торрент скачать бесплатно




    Призрачные войны / Война с призраками / Ghost Wars (2017) WEB-DL [H.264 / 1080p-LQ] (сезон 1, серии 1 из 13) OmskBird (обновляемая) [AD] торрент скачать бесплатно

    Опубликовал: Админ | Дата: 9-10-2017, 05:00 | Просмотров: 0

    Производство: Канада, США
    Жанр: ужасы, фэнтези, драма
    Режиссер: Дэвид Фон Энкен, Саймон Бэрри, Матиас Хендл

    Актеры
    Сара Джайлс, Эллисон Джеймс, Соня Беннет, Марина Бенитез Лаззаротто, Филип Грэйнджер, Чэнс Хурстфилд, Эндрю Моксэм, Мэдди Филлипс, Зак Сантьяго, Кармел Амит и др.

    Описание

    События разворачиваются в захолустном городке на Аляске, наводнённом сверхъестественными силами. Главный герой — местный пария Роман Мерсер, вынужденный перебороть предубеждения горожан и справиться с собственными демонами, ведь только так он сможет взять под контроль давно подавляемые сверхспособности и спасти жителей от нашествия призраков.

    Дата мировой премьеры: 5 октября 2017
    Релиз от: OmskBird
    Продолжительность: ~00: 43: 00 серия
    Качество видео: WEB-DL
    Перевод: Многоголосый закадровый, профессиональный - OmskBird
    Субтитры: Английские
    Реклама: присутствуют аудио вставки рекламы
    Видео: AVC/H.264, 1920x800, ~7700 kbps
    Аудио #1: AC3, 6 ch, 640 kbps - русский, многоголосый закадровый
    Аудио #2: AC3, 6 ch, 640 kbps - английский

    General
    Unique ID : 222904387115917866199505654581418121895 (0xA7B1D2C991662682947F0E088D75DAA7)
    Complete name : G: \Films\Ghost.Wars.S01.1080p.WEB-DL.OmskBird\Ghost.Wars.S01E01.1080p.WEB-DL.OmskBird.mkv
    Format : Matroska
    Format version : Version 4/Version 2
    File size : 2.69 GiB
    Duration : 42mn 51s
    Overall bit rate mode : Variable
    Overall bit rate : 8 972 Kbps
    Encoded date : UTC 2017-10-06 17: 16: 45
    Writing application : mkvmerge v15.0.0 (\\'Duel with the Devil\\') 64-bit
    Writing library : libebml v1.3.5 + libmatroska v1.4.5
    Cover : Yes
    Attachments : small_cover.jpg/small_cover_land.jpg/cover.jpg/cover_land.jpg
    Video
    ID : 1
    Format : AVC
    Format/Info : Advanced Video Codec
    Format profile : High@L4
    Format settings, CABAC : Yes
    Format settings, ReFrames : 4 frames
    Codec ID : V_MPEG4/ISO/AVC
    Duration : 42mn 51s
    Bit rate mode : Variable
    Bit rate : 7 513 Kbps
    Maximum bit rate : 15.0 Mbps
    Width : 1 920 pixels
    Height : 800 pixels
    Display aspect ratio : 2.40: 1
    Frame rate mode : Constant
    Frame rate : 23.976 (24000/1001) fps
    Color space : YUV
    Chroma subsampling : 4: 2: 0
    Bit depth : 8 bits
    Scan type : Progressive
    Bits/(Pixel*Frame) : 0.204
    Stream size : 2.25 GiB (84%)
    Language : English
    Default : Yes
    Forced : No
    Color range : Limited
    Color primaries : BT.709
    Transfer characteristics : BT.709
    Matrix coefficients : BT.709
    Audio #1
    ID : 2
    Format : AC-3
    Format/Info : Audio Coding 3
    Mode extension : CM (complete main)
    Format settings, Endianness : Big
    Codec ID : A_AC3
    Duration : 42mn 51s
    Bit rate mode : Constant
    Bit rate : 640 Kbps
    Channel(s) : 6 channels
    Channel positions : Front: L C R, Side: L R, LFE
    Sampling rate : 48.0 KHz
    Frame rate : 31.250 fps (1536 spf)
    Compression mode : Lossy
    Stream size : 196 MiB (7%)
    Title : OmskBird 5.1
    Language : Russian
    Default : Yes
    Forced : No
    Audio #2
    ID : 3
    Format : AC-3
    Format/Info : Audio Coding 3
    Mode extension : CM (complete main)
    Format settings, Endianness : Big
    Codec ID : A_AC3
    Duration : 42mn 51s
    Bit rate mode : Constant
    Bit rate : 640 Kbps
    Channel(s) : 6 channels
    Channel positions : Front: L C R, Side: L R, LFE
    Sampling rate : 48.0 KHz
    Frame rate : 31.250 fps (1536 spf)
    Compression mode : Lossy
    Stream size : 196 MiB (7%)
    Title : eng
    Language : English
    Default : No
    Forced : No
    Text
    ID : 4
    Format : UTF-8
    Codec ID : S_TEXT/UTF8
    Codec ID/Info : UTF-8 Plain Text
    Title : eng
    Language : English
    Default : No
    Forced : No


    Онлайн видео Призрачные войны



    Призрачные войны/Война с призраками/Ghost Wars (2017) WEB-DL [H.264/1080p-LQ] (сезон 1, серии 1 из 13) OmskBird (обновляемая) [AD]
    загрузка...
    Рейтинг →
     (голосов: 1, оценка 4/5, голосовать можно 1 раз )

    Другие торренты по теме:

  • Призрачные войны / Ghost Wars (2017) HDTVRip (сезон 1, серии 1 из 13) Sunshine Studio (Обновляемая) [AD]


    • Комментарии (0):

      Информация

      Информация

        Посетители, находящиеся в группе Гости, не могут оставлять комментарии в данной новости.

        ↓ Меню




        ↓ Опрос

        Вы добавили сайт в закладки?
        Да
        Нет


        Top 10 за месяц (Фильмы)