.
Авторизация | Регистрация
Хочешь лучшие торренты? Добавь свой email!
Добавить

Торрент скачать бесплатно

» » Сверхлюди / Нелюди / Inhumans (2017) WEB-DL [H.264 / 720р-LQ] (сезон 1, серии 1-3 из 8) Невафильм (обновляемая) торрент скачать бесплатно




    Сверхлюди / Нелюди / Inhumans (2017) WEB-DL [H.264 / 720р-LQ] (сезон 1, серии 1-3 из 8) Невафильм (обновляемая) торрент скачать бесплатно

    Опубликовал: Админ | Дата: 9-10-2017, 05:00 | Просмотров: 0

    Производство: США, Marvel Television, Walt Disney Television
    Жанр: фантастика, боевик, приключения
    Режиссер: Роэль Рейн, Крис Фишер, Билл Джирхарт

    Актеры
    Соня Балморес, Изабель Корниш, Эме Иквуакор, Кен Люн, Майк Мо, Энсон Маунт, Иван Реон, Серинда Свон, Эллен Воглом, Генри Иэн Кьюсик

    Описание

    История Королевской семьи, принадлежащей к расе Сверхлюдей. Вследствие военного переворота члены королевской фамилии под предводительством Чёрного Грома вынуждены покинуть свой дом в лунном городе Аттилан и бежать на острова, как в дальнейшем оказывается — Гавайи, где им предстоит спасать не только себя, но и весь мир от гибели.

    Продолжительность: ~ 00: 45: 00 серия
    Качество видео: WEB-DL
    Перевод: Дублированный -Невафильм
    Реклама: отсутствует
    Видео: AVC/H.264, 1280x720, ~4030 kbps
    Аудио # 1 : AC3, 2 ch, 192 kbps - русский, дублированный
    Аудио # 2 : AC3, 6 ch, 384 kbps - английский

    Общее
    Уникальный идентификатор : 210561100365270788679922367516950919888 (0x9E6897C3D0D03AF3966D48F27CF3FAD0)
    Полное имя : Сериалы\Inhumans (Season 01) 720\Inhumans.S01E01.720p.DUB.mkv
    Формат : Matroska
    Версия формата : Version 4/Version 2
    Размер файла : 1, 37 Гбайт
    Продолжительность : 42 м. 29 с.
    Общий поток : 4610 Кбит/сек
    Название фильма : Marvels.Inhumans.S01E01.720p.WEB-DL.DD5.1.H264-RARBG
    Дата кодирования : UTC 2017-09-30 11: 16: 05
    Программа кодирования : mkvmerge v8.3.0 (\\'Over the Horizon\\') 64bit
    Библиотека кодирования : libebml v1.3.1 + libmatroska v1.4.2
    Обложка : Yes
    Attachments : cover_land.jpg/small_cover.jpg/small_cover_land.jpg/cover.jpg
    Видео
    Идентификатор : 1
    Формат : AVC
    Формат/Информация : Advanced Video Codec
    Профиль формата : High@L3.1
    Параметр CABAC формата : Нет
    Параметр ReFrames формата : 2 кадра
    Идентификатор кодека : V_MPEG4/ISO/AVC
    Продолжительность : 42 м. 29 с.
    Битрейт : 4032 Кбит/сек
    Ширина : 1280 пикселей
    Высота : 720 пикселей
    Соотношение сторон : 16: 9
    Режим частоты кадров : Постоянный
    Частота кадров : 23, 976 (23976/1000) кадра/сек
    Цветовое пространство : YUV
    Субдискретизация насыщенности : 4: 2: 0
    Битовая глубина : 8 бит
    Тип развёртки : Прогрессивная
    Бит/(Пиксели*Кадры) : 0.182
    Размер потока : 1, 20 Гбайт (87%)
    Заголовок : Marvels.Inhumans.S01E01.720p.WEB-DL.DD5.1.H264-RARBG
    Язык : English
    Default : Да
    Forced : Нет
    Цветовой диапазон : Limited
    Основные цвета : BT.709
    Характеристики трансфера : BT.709
    Коэффициенты матрицы : BT.709
    Аудио #1
    Идентификатор : 2
    Формат : AC-3
    Формат/Информация : Audio Coding 3
    Расширение режима : CM (complete main)
    Параметр Endianness формата : Big
    Идентификатор кодека : A_AC3
    Продолжительность : 42 м. 29 с.
    Вид битрейта : Постоянный
    Битрейт : 192 Кбит/сек
    Каналы : 2 канала
    Расположение каналов : Front: L R
    Частота : 48, 0 КГц
    Частота кадров : 31, 250 кадров/сек (1536 spf)
    Битовая глубина : 16 бит
    Метод сжатия : С потерями
    Задержка видео : -42 мс.
    Размер потока : 58, 3 Мбайт (4%)
    Язык : Russian
    Default : Да
    Forced : Нет
    Аудио #2
    Идентификатор : 3
    Формат : AC-3
    Формат/Информация : Audio Coding 3
    Расширение режима : CM (complete main)
    Параметр Endianness формата : Big
    Идентификатор кодека : A_AC3
    Продолжительность : 42 м. 29 с.
    Вид битрейта : Постоянный
    Битрейт : 384 Кбит/сек
    Каналы : 6 каналов
    Расположение каналов : Front: L C R, Side: L R, LFE
    Частота : 48, 0 КГц
    Частота кадров : 31, 250 кадров/сек (1536 spf)
    Битовая глубина : 16 бит
    Метод сжатия : С потерями
    Задержка видео : -42 мс.
    Размер потока : 117 Мбайт (8%)
    Язык : English
    Default : Нет
    Forced : Нет


    Онлайн видео Сверхлюди



    Сверхлюди/Нелюди/Inhumans (2017) WEB-DL [H.264/720р-LQ] (сезон 1, серии 1-3 из 8) Невафильм (обновляемая)
    загрузка...
    Рейтинг →
     (голосов: 1, оценка 5/5, голосовать можно 1 раз )

    Другие торренты по теме:

  • Сверхлюди / Нелюди / Inhumans (2017) WEB-DL [H.264 / 720р-LQ] (сезон 1, серии 1-2 из 8) NewStudio (обновляемая)
  • Сверхлюди / Нелюди / Inhumans (2017) WEB-DL [H.264 / 1080p-LQ] (сезон 1, серии 1-2 из 8) NevaFilm, LostFilm (обновляемая)
  • Сверхлюди / Нелюди / Inhumans (2017) WEB-DLRip (сезон 1, серии 1-3 из 8) NevaFilm, LostFilm (обновляемая)


    • Комментарии (0):

      Информация

      Информация

        Посетители, находящиеся в группе Гости, не могут оставлять комментарии в данной новости.

        ↓ Меню




        ↓ Опрос

        Вы добавили сайт в закладки?
        Да
        Нет


        Top 10 за месяц (Фильмы)