.
Авторизация | Регистрация
Хочешь лучшие торренты? Добавь свой email!
Добавить

Торрент скачать бесплатно

» » Офис / The Office (2005) WEB-DLRip [H.264 / 720p-LQ] (сезон 1, серии 1-6 из 6) Первый канал, Кравец торрент скачать бесплатно




    Офис / The Office (2005) WEB-DLRip [H.264 / 720p-LQ] (сезон 1, серии 1-6 из 6) Первый канал, Кравец торрент скачать бесплатно

    Опубликовал: Админ | Дата: 9-10-2017, 05:00 | Просмотров: 0

    Производство: США
    Жанр: Комедия
    Режиссер: Пол Фиг, Рэндолл Айнхорн, Кен Куопис

    Актеры
    Стив Карелл, Рэйн Уилсон, Джон Красински, Дженна Фишер, Эд Хелмс, Анджела Кинси, Минди Кейлинг, Б.Дж. Новак, Крэйг Робинсон, Элли Кемпер и др.

    Описание

    Сериал о трудовых буднях небольшого регионального офиса крупной компании, обитатели которого целыми днями должны терпеть закидоны своего непутевого босса.

    Возраст: 16+ (зрителям, достигшим 16 лет)
    Релиз от: Beer kolesik Drinkers
    Продолжительность: ~00: 21: 00 серия
    Качество видео: WEB-DLRip
    Перевод: Дублированный - Первый канал, многоголосый закадровый, профессиональный - Студия Кравец (2х2)
    Субтитры: Русские, английские
    Видео: AVC/H.264, 1280x720, ~4211 kbps
    Аудио #1: AC3, 2 ch, 192 Kbps — русский, дублированный
    Аудио #2: AC3, 2 ch, 192 Kbps — русский, многоголосый закадровый
    Аудио #3: AAC, 2 ch, 154 Kbps — английский

    Общее
    Уникальный идентификатор : 194559866901476978182086479432696461851 (0x925EDE0B93C742E6ADD885D1DE97FA1B)
    Полное имя : C: \The Office.US (s01)\The.Office.S01E01.Pilot.WEB-DL.720p.mkv
    Формат : Matroska
    Версия формата : Version 4/Version 2
    Размер файла : 783 Мбайт
    Продолжительность : 23 м. 2 с.
    Общий поток : 4752 Кбит/сек
    Дата кодирования : UTC 2014-04-29 01: 13: 44
    Программа кодирования : mkvmerge v6.0.0 (\\'Coming Up For Air\\') built on Jan 20 2013 09: 52: 00
    Библиотека кодирования : libebml v1.3.0 + libmatroska v1.4.0
    Видео
    Идентификатор : 1
    Формат : AVC
    Формат/Информация : Advanced Video Codec
    Профиль формата : High@L3.1
    Настройки формата : 2 Ref Frames
    Параметр CABAC формата : Нет
    Параметр RefFrames формата : 2 кадра
    Идентификатор кодека : V_MPEG4/ISO/AVC
    Продолжительность : 23 м. 2 с.
    Ширина : 1280 пикселей
    Высота : 720 пикселей
    Соотношение сторон : 16: 9
    Режим частоты кадров : Постоянный
    Частота кадров : 23, 976 кадра/сек
    Цветовое пространство : YUV
    Субдискретизация насыщенности : 4: 2: 0
    Битовая глубина : 8 бит
    Тип развёртки : Прогрессивная
    Язык : English
    Default : Да
    Forced : Нет
    Цветовой диапазон : Limited
    Основные цвета : BT.709
    Характеристики трансфера : BT.709
    Коэффициенты матрицы : BT.709
    Аудио #1
    Идентификатор : 2
    Формат : AC-3
    Формат/Информация : Audio Coding 3
    Параметр Endianness формата : Big
    Идентификатор кодека : A_AC3
    Продолжительность : 23 м. 2 с.
    Вид битрейта : Постоянный
    Битрейт : 192 Кбит/сек
    Каналы : 2 канала
    Расположение каналов : Front: L R
    Частота : 48, 0 КГц
    Частота кадров : 31, 250 кадров/сек (1536 SPF)
    Битовая глубина : 16 бит
    Метод сжатия : С потерями
    Размер потока : 31, 6 Мбайт (4%)
    Язык : Russian
    ServiceKind/String : Complete Main
    Default : Да
    Forced : Нет
    Аудио #2
    Идентификатор : 3
    Формат : AC-3
    Формат/Информация : Audio Coding 3
    Параметр Endianness формата : Big
    Идентификатор кодека : A_AC3
    Продолжительность : 23 м. 2 с.
    Вид битрейта : Постоянный
    Битрейт : 192 Кбит/сек
    Каналы : 2 канала
    Расположение каналов : Front: L R
    Частота : 48, 0 КГц
    Частота кадров : 31, 250 кадров/сек (1536 SPF)
    Битовая глубина : 16 бит
    Метод сжатия : С потерями
    Размер потока : 31, 6 Мбайт (4%)
    Язык : Russian
    ServiceKind/String : Complete Main
    Default : Нет
    Forced : Нет
    Аудио #3
    Идентификатор : 4
    Формат : AAC
    Формат/Информация : Advanced Audio Codec
    Профиль формата : LC
    Идентификатор кодека : A_AAC-2
    Продолжительность : 23 м. 2 с.
    Каналы : 2 канала
    Расположение каналов : Front: L R
    Частота : 48, 0 КГц
    Частота кадров : 46, 875 кадров/сек (1024 SPF)
    Метод сжатия : С потерями
    Язык : English
    Default : Нет
    Forced : Нет
    Текст #1
    Идентификатор : 5
    Формат : UTF-8
    Идентификатор кодека : S_TEXT/UTF8
    Идентификатор кодека/Информация : UTF-8 Plain Text
    Язык : Russian
    Default : Нет
    Forced : Нет
    Текст #2
    Идентификатор : 6
    Формат : UTF-8
    Идентификатор кодека : S_TEXT/UTF8
    Идентификатор кодека/Информация : UTF-8 Plain Text
    Язык : English
    Default : Нет
    Forced : Нет
    File: C: \The Office.US (s01)\The.Office.S01E01.Pilot.WEB-DL.720p.mkv
    Duration: 00: 23: 02 (1382.5)
    Track #1: video
    lang: Unknown (1)
    codc: V_MPEG4/ISO/AVC - H264/AVC (22)
    reso: 1280x720 - 16: 9
    fram: 23.976 fps
    rate: 4211 kbps (4211.11)
    dura: 00: 23: 02 (1382.38)
    size: 693.96 MB (727669992)
    Track #2: audio
    lang: rus - Russian (15)
    codc: A_AC3 - AC3 (2)
    chan: 2 - Stereo
    samp: 48000 Hz
    rate: 192 kbps (192.05)
    dura: 00: 23: 02 (1382.24)
    size: 31.65 MB (33183201)
    Track #3: audio
    lang: rus - Russian (15)
    codc: A_AC3 - AC3 (2)
    chan: 2 - Stereo
    samp: 48000 Hz
    rate: 192 kbps (192.07)
    dura: 00: 23: 02 (1382.24)
    size: 31.65 MB (33185505)
    Track #4: audio
    lang: Unknown (1)
    codc: A_AAC - AAC (9)
    chan: 2 - Stereo
    samp: 48000 Hz
    rate: 154 kbps (154.41)
    dura: 00: 23: 02 (1382.34)
    size: 25.45 MB (26681129)
    Track #5: subtitles
    lang: rus - Russian (15)
    type: S_TEXT/UTF8 - SRT (3)
    size: 22.16 KB (22687)
    Track #6: subtitles
    lang: Unknown (1)
    type: S_TEXT/UTF8 - SRT (3)
    size: 13.52 KB (13844)
    Sizes: (check sanity)
    disk: 783.16 MB (821201448)
    trac: 782.73 MB (820756358) based on track size
    bitr: 782.71 MB (820727272) based on bitrate
    tdif: 434.66 KB (445090) 0.05%
    bdif: 463.06 KB (474175) 0.05%


    Онлайн видео Офис



    Офис/The Office (2005) WEB-DLRip [H.264/720p-LQ] (сезон 1, серии 1-6 из 6) Первый канал, Кравец
    загрузка...
    Рейтинг →
     (голосов: 1, оценка 5/5, голосовать можно 1 раз )

    Другие торренты по теме:

  • Офис / The Office (2005) WEB-DLRip [H.264 / 720p-LQ] (сезон 2, серии 1-22 из 22) Первый канал, Кравец


    • Комментарии (0):

      Информация

      Информация

        Посетители, находящиеся в группе Гости, не могут оставлять комментарии в данной новости.

        ↓ Меню




        ↓ Опрос

        Вы добавили сайт в закладки?
        Да
        Нет


        Top 10 за месяц (Фильмы)