.
Авторизация | Регистрация
Хочешь лучшие торренты? Добавь свой email!
Добавить

Торрент скачать бесплатно

» » Пёс (2016) WEB-DLRip [H.264] (сезон 2, серии 1-24 из 24) торрент скачать бесплатно




    Пёс (2016) WEB-DLRip [H.264] (сезон 2, серии 1-24 из 24) торрент скачать бесплатно

    Опубликовал: Админ | Дата: 9-10-2017, 05:00 | Просмотров: 0

    Производство: Украина/PRO-TV
    Жанр: детектив
    Режиссер: Николай Каптан, Игорь Забара

    Актеры
    Андрей Саминин, Никита Панфилов, Михаил Жонин, Ольга Олексий, Денис Роднянский, Светлана Зельбет, Ольга Морозова, Тарас Мельничук и др.

    Описание

    Макс – алкоголик. Когда-то лучший сыщик в городе, Макс потерял все – работу, друзей, жену. У него остался единственный друг – Пес. После серии погонь, драк и перестрелок, Пес и Макс раскрыли тайну загадочного убийства. Макс с Псом снова стали детективами. Теперь каждый день начинается с того, что Пес и Макс пытаются выяснить, кто совершил преступление... И выяснить – кто из них лучший сыщик в городе!

    Возраст: 16+ (зрителям, достигшим 16 лет)
    Релиз от: Files-х
    Продолжительность: ~ 00: 48: 00 серия
    Качество видео: WEB-DLRip
    Видео: AVC/H.264, 1024x576 (16: 9), ~ 1600 Кбит/с
    Аудио: AC3, 2 канала, 192 Кбит/с
    Код: выделить все

    Общее
    Уникальный идентификатор : 217671894489069229718909972763065380765 (0xA3C214FBA5264B60A48A397CCE62EF9D)
    Полное имя : D:\СЕРИАЛЫ\Пес.2.(2016).WEB-DLRip.(AVC).Files-x\01.Pes-2 2016.WEB-DLRip.AVC.by.Серый1779.Files-x.mkv
    Формат : Matroska
    Версия формата : Version 2
    Размер файла : 639 Мбайт
    Продолжительность : 49 м.
    Общий поток : 1792 Кбит/сек
    Дата кодирования : UTC 2016-09-20 02:53:21
    Программа кодирования : mkvmerge v6.1.0 (\\'Old Devil\\') built on Mar 4 2013 09:10:42
    Библиотека кодирования : libebml v1.3.0 + libmatroska v1.4.0
    Видео
    Идентификатор : 1
    Формат : AVC
    Формат/Информация : Advanced Video Codec
    Профиль формата :High@L4.1
    Параметр CABAC формата : Да
    Параметр ReFrames формата : 9 кадров
    Идентификатор кодека : V_MPEG4/ISO/AVC
    Продолжительность : 49 м.
    Битрейт : 1600 Кбит/сек
    Ширина : 1024 пикселя
    Высота : 576 пикселей
    Соотношение сторон : 16:9
    Режим частоты кадров : Постоянный
    Частота кадров : 25, 000 кадров/сек
    Цветовое пространство : YUV
    Субдискретизация насыщенности : 4:2:0
    Битовая глубина : 8 бит
    Тип развёртки : Прогрессивная
    Бит/(Пиксели*Кадры) : 0.109
    Размер потока : 558 Мбайт (87%)
    Библиотека кодирования : x264 core 130 r2273 b3065e6
    Настройки программы : cabac=1/ref=9/deblock=1:-2:-1/analyse=0x3:0x133/me=umh/subme=9/psy=1/psy_rd=1.00:0.15/mixed_ref=1/me_range=32/chroma_me=1/trellis=2/8x8dct=1/cqm=0/deadzone=21, 11/fast_pskip=0/chroma_qp_offset=-3/threads=6/lookahead_threads=1/sliced_threads=0/nr=0/decimate=1/interlaced=fake/bluray_compat=0/constrained_intra=0/bframes=9/b_pyramid=2/b_adapt=2/b_bias=0/direct=1/weightb=1/open_gop=0/weightp=2/keyint=250/keyint_min=25/scenecut=40/intra_refresh=0/rc=2pass/mbtree=0/bitrate=1600/ratetol=1.0/qcomp=0.60/qpmin=0/qpmax=69/qpstep=4/cplxblur=20.0/qblur=0.5/ip_ratio=1.40/pb_ratio=1.30/aq=2:1.00
    Default : Да
    Forced : Нет
    Цветовой диапазон : Limited
    Основные цвета : BT.709
    Характеристики трансфера : BT.709
    Коэффициенты матрицы : BT.709
    Аудио
    Идентификатор : 2
    Формат : AC-3
    Формат/Информация : Audio Coding 3
    Расширение режима : CM (complete main)
    Параметр Endianness формата : Big
    Идентификатор кодека : A_AC3
    Продолжительность : 49 м.
    Вид битрейта : Постоянный
    Битрейт : 192 Кбит/сек
    Каналы : 2 канала
    Расположение каналов : Front: L R
    Частота : 48, 0 КГц
    Частота кадров : 31, 250 кадров/сек (1536 spf)
    Метод сжатия : С потерями
    Размер потока : 68, 5 Мбайт (11%)
    Default : Да
    Forced : Нет

    Скриншоты для ознакомления




    Все раздачи сериала Пёс

    Время раздачи: до 3-х скачавших, далее по возможности. (до появления первых 3-5 скачавших)

    Онлайн видео Пёс (2016) WEB



    Пёс (2016) WEB-DLRip [H.264] (сезон 2, серии 1-24 из 24)
    загрузка...
    Рейтинг →
     (голосов: 1, оценка 5/5, голосовать можно 1 раз )

    Другие торренты по теме:

  • Чёрный список / The Blacklist (2017) WEB-DLRip (сезон 5, серии 1-3 из 22) LostFilm (обновляемая)
  • Битва экстрасенсов. Сезон №15. Выпуск №6 (2014) WEB-DLRip скачать через торрент бесплатно
  • Рассмеши комика. Сезон №9. Выпуск №1 (2015.02.21) WEB-DLRip
  • Халк и агенты СМЭШ (Халк и агенты У.Д.А.Р.) (Сезон 1, Серия: 1-26 из 26) / Hulk and the Agents of S.M.A.S.H. (2013) WEB-DLRip скачать через торрент бесплатно
  • Команда «Мстители» (Сезон 1, Серия: 1-26 из 26) / Мстители, общий сбор / Marvels Avengers Assemble (2013) WEB-DLRip скачать через торрент бесплатно
  • Выжить в лесу. Крымский сезон (2016) WEB-DLRip
  • Орел и решка. Рай и ад (2017) WEB-DLRip (сезон 13, выпуски 1-20 из 20) (Полный сезон!!!)
  • Сбой / Glitch (2015) WEB-DLRip (сезон 1, серии 1-6 из 6) (Project Web Money) скачать через торрент бесплатно


    • Комментарии (0):

      Информация

      Информация

        Посетители, находящиеся в группе Гости, не могут оставлять комментарии в данной новости.

        ↓ Меню




        ↓ Опрос

        Вы добавили сайт в закладки?
        Да
        Нет


        Top 10 за месяц (Фильмы)