.
Авторизация | Регистрация
Хочешь лучшие торренты? Добавь свой email!
Добавить

Торрент скачать бесплатно

» » Столетие Якова / Століття Якова (2016) WEBRip [H.264 / 1080p-LQ] (серии 1-4 из 4) торрент скачать бесплатно




    Столетие Якова / Століття Якова (2016) WEBRip [H.264 / 1080p-LQ] (серии 1-4 из 4) торрент скачать бесплатно

    Опубликовал: Админ | Дата: 9-10-2017, 05:00 | Просмотров: 0

    Производство: Украина, 1+1 Продакшн
    Жанр: драма, история
    Режиссер: Бата Недич

    Актеры
    Станислав Боклан, Роман Луцкий, Анна Топчий, Людмила Загорская, Александр Печерица, Наталия Денисенко, Тамара Морозова, Наталья Доля, Олег Примогенов, Андрей Саминин

    Описание

    За сто лет жизни простой украинский крестьянин Яков испытал все, о чем только может мечтать человек. Но на его долю выпало и то, чего не пожелаешь даже врагу. Трогательная и реалистическая любовная драма, которая началась на Западной Украине времен польского владычества и продлилась до наших дней.

    Релиз от: sergiyko
    Продолжительность: ~00: 49: 00 серия
    Качество видео: WEBRip
    Перевод: Отсутствует
    Язык озвучки: Украинский
    Субтитры: Отсутствуют
    Видео: AVC/H.264, 1920x1080, ~2100 kbps
    Аудио: AAC, 2 ch, 126 kbps

    General
    Unique ID : 188858084998169394615835899758758787879 (0x8E14BE7E3D4986BE8F2148F75922FB27)
    Complete name : D: \Torrents\FILMS\Століття Якова 1080p WEBRip\01.Століття Якова.Частина перша.Уляна.1080p.WEBRip.mkv
    Format : Matroska
    Format version : Version 4/Version 2
    File size : 781 MiB
    Duration : 49 min 0 s
    Overall bit rate : 2 229 kb/s
    Movie name : Століття Якова 1080p WEBRip by sergiyko
    Encoded date : UTC 2017-09-29 08: 21: 42
    Writing application : mkvmerge v15.0.0 (\\'Duel with the Devil\\') 64-bit
    Writing library : libebml v1.3.5 + libmatroska v1.4.5
    Cover : Yes
    Attachments : cover.jpg
    Video
    ID : 1
    Format : AVC
    Format/Info : Advanced Video Codec
    Format profile : High@L4
    Format settings, CABAC : Yes
    Format settings, RefFrames : 3 frames
    Codec ID : V_MPEG4/ISO/AVC
    Duration : 49 min 0 s
    Bit rate : 2 100 kb/s
    Width : 1 920 pixels
    Height : 1 080 pixels
    Display aspect ratio : 16: 9
    Frame rate mode : Constant
    Frame rate : 25.000 FPS
    Color space : YUV
    Chroma subsampling : 4: 2: 0
    Bit depth : 8 bits
    Scan type : Progressive
    Bits/(Pixel*Frame) : 0.041
    Stream size : 736 MiB (94%)
    Title : Частина перша. Уляна
    Language : Ukrainian
    Default : Yes
    Forced : No
    Color range : Limited
    Color primaries : BT.709
    Transfer characteristics : BT.709
    Matrix coefficients : BT.709
    Audio
    ID : 2
    Format : AAC
    Format/Info : Advanced Audio Codec
    Format profile : LC
    Codec ID : A_AAC
    Duration : 49 min 0 s
    Bit rate : 126 kb/s
    Channel(s) : 2 channels
    Channel positions : Front: L R
    Sampling rate : 44.1 kHz
    Frame rate : 43.066 FPS (1024 SPF)
    Compression mode : Lossy
    Stream size : 44.0 MiB (6%)
    Title : Українська мова
    Language : Ukrainian
    Default : Yes
    Forced : No
    Частина перша. Уляна
    Частина друга. Зося
    Частина третя. Війна
    Частина четверта. Фінал

    Скриншоты для ознакомления



    Все одноименные релизы в Клубе
    Время раздачи: Пн-Пт с 18: 00 до 00: 00 (до появления первых 3-5 скачавших)

    Онлайн видео Столетие Якова



    Столетие Якова/Століття Якова (2016) WEBRip [H.264/1080p-LQ] (серии 1-4 из 4)
    загрузка...
    Рейтинг →
     (голосов: 1, оценка 5/5, голосовать можно 1 раз )

    Другие торренты по теме:

  • Уильям Ф. Энгдаль | Столетие войны: англо-американская нефтяная политика и Новый мировой порядок (2008) [PDF]


    • Комментарии (0):

      Информация

      Информация

        Посетители, находящиеся в группе Гости, не могут оставлять комментарии в данной новости.

        ↓ Меню




        ↓ Опрос

        Вы добавили сайт в закладки?
        Да
        Нет


        Top 10 за месяц (Фильмы)