.
Авторизация | Регистрация
Хочешь лучшие торренты? Добавь свой email!
Добавить

Торрент скачать бесплатно

» » Готэм / Gotham (2017) WEB-DLRip (сезон 4, серии 1-3 из 22) LostFilm (обновляемая) торрент скачать бесплатно




    Готэм / Gotham (2017) WEB-DLRip (сезон 4, серии 1-3 из 22) LostFilm (обновляемая) торрент скачать бесплатно

    Опубликовал: Админ | Дата: 9-10-2017, 05:00 | Просмотров: 0

    Производство: США, DC Comics
    Жанр: Триллер, Детектив, Криминал
    Режиссер: Дэнни Кэннон, Роб Бэйли, Т.Дж. Скотт

    Актеры
    Бен МакКензи, Шон Пертуи, Робин Тейлор, Забрина Гевара, Эрин Ричардс, Донал Лог, Джада Пинкетт Смит, Дэвид Мазоуз, Камрен Бикондова, Кори Майкл Смит и др.

    Описание

    Новый сезон любимого сериала сериала Готэм, новые враги один страшнее другого и все прямиком со страниц комиксов. А с тех пор, как Брюс ступил на путь супергероя, враги стали ещё ужаснее. Кроме заявленного уже Пугало, в 4 сезон любимого сериалае появится профессор Пиг - серийный маньяк - убийца, улучшающий людей с помощью хирургических манипуляций. Из таких людей он создал персональную армию куклотронов. На самом деле это уже не люди, органические роботы с кукольными масками вместо лиц, которые не чувствуют боли и не умеют думать. С таким ужасным врагом Брюсу некогда будет отдыхать.

    Возраст: 16+ (зрителям, достигшим 16 лет)
    Продолжительность: ~00: 44: 00 серия
    Качество видео: WEB-DLRip
    Перевод: Многоголосый закадровый, профессиональный -Lostfilm
    Видео: XviD, 720x400 (16: 9), ~1500 kbps
    Аудио 1: MP3, 48, 0 kHz, 2 ch, 128 kbps — русский, многоголосый закадровый
    Аудио 2: MP3, 48, 0 kHz, 2 ch, 128 kbps — английский

    Общее
    Полное имя : F: \Downloads\Gotham (Season 04) LostFilm\Gotham.S04E01.WEB-DLRip.Rus.Eng.LostFilm.avi
    Формат : AVI
    Формат/Информация : Audio Video Interleave
    Размер файла : 550 Мбайт
    Продолжительность : 42 м. 59 с.
    Общий поток : 1790 Кбит/сек
    Программа кодирования : VirtualDubMod 1.5.10.3 |www.virtualdub-fr.org|| (build 2550/release)
    Библиотека кодирования : VirtualDubMod build 2550/release
    Видео
    Идентификатор : 0
    Формат : MPEG-4 Visual
    Профиль формата : Advanced Simple@L5
    Параметр BVOP формата : 1
    Параметр QPel формата : Нет
    Параметр GMC формата : Без точки перехода
    Параметр матрицы формата : Выборочная
    Идентификатор кодека : XVID
    Идентификатор кодека/Подсказка : XviD
    Продолжительность : 42 м. 59 с.
    Битрейт : 1520 Кбит/сек
    Ширина : 720 пикселей
    Высота : 400 пикселей
    Соотношение сторон : 16: 9
    Частота кадров : 23, 976 (23976/1000) кадра/сек
    Цветовое пространство : YUV
    Субдискретизация насыщенности : 4: 2: 0
    Битовая глубина : 8 бит
    Тип развёртки : Прогрессивная
    Метод сжатия : С потерями
    Бит/(Пиксели*Кадры) : 0.220
    Размер потока : 467 Мбайт (85%)
    Библиотека кодирования : XviD 73
    Аудио #1
    Идентификатор : 1
    Формат : MPEG Audio
    Версия формата : Version 1
    Профиль формата : Layer 3
    Режим : Joint stereo
    Расширение режима : MS Stereo
    Идентификатор кодека : 55
    Идентификатор кодека/Подсказка : MP3
    Продолжительность : 42 м. 59 с.
    Вид битрейта : Постоянный
    Битрейт : 128 Кбит/сек
    Каналы : 2 канала
    Частота : 48, 0 КГц
    Метод сжатия : С потерями
    Размер потока : 39, 4 Мбайт (7%)
    Выравнивание : Соединение по промежуткам
    Продолжительность промежутка : 42 мс. (1, 00 видеокадр)
    Время предзагрузки промежутка : 504 мс.
    Аудио #2
    Идентификатор : 2
    Формат : MPEG Audio
    Версия формата : Version 1
    Профиль формата : Layer 3
    Режим : Joint stereo
    Расширение режима : MS Stereo
    Идентификатор кодека : 55
    Идентификатор кодека/Подсказка : MP3
    Продолжительность : 42 м. 59 с.
    Вид битрейта : Постоянный
    Битрейт : 128 Кбит/сек
    Каналы : 2 канала
    Частота : 48, 0 КГц
    Метод сжатия : С потерями
    Размер потока : 39, 4 Мбайт (7%)
    Выравнивание : Соединение по промежуткам
    Продолжительность промежутка : 42 мс. (1, 00 видеокадр)
    Время предзагрузки промежутка : 504 мс.
    Пингвинов Мир (A Dark Knight: Pax Penguina)
    Жнец страха (A Dark Knight: The Fear Reaper)
    Кто прятался под масками ( A Dark Knight: They Who Hide Behind Masks)
    Чистый кадр. Вступительная заставка и логотип LostFilm отсутствуют.


    Онлайн видео Готэм



    Готэм/Gotham (2017) WEB-DLRip (сезон 4, серии 1-3 из 22) LostFilm (обновляемая)
    загрузка...
    Рейтинг →
     (голосов: 1, оценка 4/5, голосовать можно 1 раз )

    Другие торренты по теме:

  • Готэм / Gotham (2014) WEB-DLRip (сезон 1, серии 1 из 16) LostFilm (обновляемая)
  • Готэм / Gotham (2014) WEB-DL [H.264 / 1080p-LQ] (Сезон 1, серия 1 из 16) (NewStudio) (обновляемая)
  • Готэм / Gotham (2014) WEB-DLRip (сезон 1, серии 1 из 16) BaibaKo (обновляемая)
  • Готэм / Gotham (2014) WEB-DL [H.264 / 720p-LQ] (Сезон 1, Серии 1 из 16) (NewStudio) (Обновляемая)
  • Готэм / Gotham (2014) WEBDLRip (Сезон 1, серия 01 из 16) (NewStudio) (обновляемая)
  • Готэм / Gotham (2014) WEB-DL [H.264 / 720p-LQ] (Сезон 1, серия 01 из 16) (BaibaKo) (обновляемая)
  • Готэм / Gotham (2014) WEBRip [H.264 / 720p-LQ] [Трейлер]
  • Готэм (Gotham) / (Сезон 1, серия 1 из 16) LostFilm (2014) [MP4|1280x718] <WEB-DL H.264> скачать через торрент бесплатно


    • Комментарии (0):

      Информация

      Информация

        Посетители, находящиеся в группе Гости, не могут оставлять комментарии в данной новости.

        ↓ Меню




        ↓ Опрос

        Вы добавили сайт в закладки?
        Да
        Нет


        Top 10 за месяц (Фильмы)