.
Авторизация | Регистрация
Хочешь лучшие торренты? Добавь свой email!
Добавить

Торрент скачать бесплатно

» » Изгоняющий дьявола / The Exorcist (2017) WEB-DL [H.264 / 720p-LQ] (сезон 2, серии 1-2 из 10) SDI Media (обновляемая) торрент скачать бесплатно




    Изгоняющий дьявола / The Exorcist (2017) WEB-DL [H.264 / 720p-LQ] (сезон 2, серии 1-2 из 10) SDI Media (обновляемая) торрент скачать бесплатно

    Опубликовал: Админ | Дата: 9-10-2017, 05:00 | Просмотров: 0

    Производство: США/20th Century Fox Television, Morgan Creek Productions
    Жанр: ужасы, триллер
    Режиссер: Майкл Нанкин, Джейсон Энслер, Руперт Уайатт

    Актеры
    Альфонсо Эррера, Бен Дэниелс, Джина Дэвис, Ханна Касулка, Брианна Хоуи, Алан Рак, Музам Маккар, Френсис Гуинан, Мелисса Расселл, Адам Биттерман и др.

    Описание

    Одна из самых популярных тем в мировом кинематографе впервые воплощена в сериале. Снятый по мотивам знаменитого романа Уильяма Блэтти фильм “Изгоняющий дьявола” Уильяма Фридкина, признан чуть ли не самым страшным за всю историю. Одноименная телеверсия обещает быть не менее пугающей. Тем более, что вселять страх будут порциями, а не разом. И хотя источники и атмосфера те же, это не римейк, а новая история с неизвестными персонажами. В центре внимания два священнослужителя — каждый со своей точкой зрения, — занимающиеся случаем демонической одержимости.

    Продолжительность: ~00: 44: 00 серия
    Качество видео: WEB-DL
    Перевод: Многоголосый закадровый, профессиональный -SDI Media по заказу Amedia
    Субтитры: отсутствуют
    Реклама: Без рекламы!
    Видео: AVC/H.264, 1280x720, ~2600 kbps,
    Аудио#1 Rus: AC3, 48 kHz, 2 ch, 192 kbps - русский, многоголосый закадровый
    Аудио#2 Eng: AC3, 48 kHz, 6 ch, 640 kbps - английский

    Общее
    Уникальный идентификатор : 215190175949696570460738265316685099845 (0xA1E41ECFE8D7D022A52F609AD6F1B345)
    Полное имя : Сериалы\Изгоняющий дьявола (сезон любимого сериала 2) The Exorcist (2017) WEB-DL - Amedia\01. The.Exorcist.S02.720p.Amedia.mkv
    Формат : Matroska
    Версия формата : Version 4/Version 2
    Размер файла : 1, 03 Гбайт
    Продолжительность : 42 м. 53 с.
    Режим общего битрейта : Переменный
    Общий поток : 3447 Кбит/сек
    Дата кодирования : UTC 2017-10-01 06: 19: 36
    Программа кодирования : mkvmerge v8.3.0 (\\'Over the Horizon\\') 64bit
    Библиотека кодирования : libebml v1.3.1 + libmatroska v1.4.2
    Видео
    Идентификатор : 1
    Формат : AVC
    Формат/Информация : Advanced Video Codec
    Профиль формата : High@L3.1
    Параметр CABAC формата : Да
    Параметр ReFrames формата : 5 кадров
    Идентификатор кодека : V_MPEG4/ISO/AVC
    Продолжительность : 42 м. 53 с.
    Вид битрейта : Переменный
    Битрейт : 2613 Кбит/сек
    Максимальный битрейт : 4500 Кбит/сек
    Ширина : 1280 пикселей
    Высота : 720 пикселей
    Соотношение сторон : 16: 9
    Режим частоты кадров : Постоянный
    Частота кадров : 23, 976 (24000/1001) кадра/сек
    Цветовое пространство : YUV
    Субдискретизация насыщенности : 4: 2: 0
    Битовая глубина : 8 бит
    Тип развёртки : Прогрессивная
    Бит/(Пиксели*Кадры) : 0.118
    Размер потока : 802 Мбайт (76%)
    Default : Да
    Forced : Нет
    Цветовой диапазон : Limited
    Основные цвета : BT.709
    Характеристики трансфера : BT.709
    Коэффициенты матрицы : BT.709
    Аудио #1
    Идентификатор : 2
    Формат : AC-3
    Формат/Информация : Audio Coding 3
    Расширение режима : CM (complete main)
    Параметр Endianness формата : Big
    Идентификатор кодека : A_AC3
    Продолжительность : 42 м. 53 с.
    Вид битрейта : Постоянный
    Битрейт : 192 Кбит/сек
    Каналы : 2 канала
    Расположение каналов : Front: L R
    Частота : 48, 0 КГц
    Частота кадров : 31, 250 кадров/сек (1536 spf)
    Битовая глубина : 16 бит
    Метод сжатия : С потерями
    Размер потока : 58, 9 Мбайт (6%)
    Язык : Russian
    Default : Да
    Forced : Нет
    Аудио #2
    Идентификатор : 3
    Формат : E-AC-3
    Формат/Информация : Enhanced Audio Coding 3
    Параметр Endianness формата : Big
    Идентификатор кодека : A_EAC3
    Продолжительность : 42 м. 53 с.
    Вид битрейта : Постоянный
    Битрейт : 640 Кбит/сек
    Каналы : 6 каналов
    Расположение каналов : Front: L C R, Side: L R, LFE
    Частота : 48, 0 КГц
    Частота кадров : 187, 500 кадров/сек (256 spf)
    Метод сжатия : С потерями
    Размер потока : 196 Мбайт (19%)
    Язык : English
    Default : Нет
    Forced : Нет


    Онлайн видео Изгоняющий дьявола



    Изгоняющий дьявола/The Exorcist (2017) WEB-DL [H.264/720p-LQ] (сезон 2, серии 1-2 из 10) SDI Media (обновляемая)
    загрузка...
    Рейтинг →
     (голосов: 1, оценка 5/5, голосовать можно 1 раз )

    Другие торренты по теме:

  • Изгоняющий дьявола / The Exorcist (1973 / 2000) [Extended Directors Cut] BDRip [720p] скачать через торрент бесплатно
  • Изгоняющий дьявола / The Exorcist (1973 / 2000) [Extended Directors Cut] BDRip [720p] скачать через торрент бесплатно
  • Изгоняющий дьявола / The Exorcist (1973 / 2000) BDRip [H.264 / 720p-LQ] [Extended Directors Cut] [Hi10P] скачать через торрент бесплатно
  • Изгоняющий дьявола III / The Exorcist III (1990) HDRip скачать через торрент бесплатно
  • Изгоняющий дьявола: Начало / Exorcist: The Beginning (2004) HDRip [H.264] скачать через торрент бесплатно
  • Изгоняющий дьявола: Приквел / Dominion - Prequel to the Exorcist (2005) HDRip [H.264] скачать через торрент бесплатно
  • Изгоняющий дьявола 2: Еретик / Exorcist 2: The Heretic (1977) HDRip [H.264] скачать через торрент бесплатно
  • Уильям Питер Блэтти | Изгоняющий дьявола (2013) [MP3]


    • Комментарии (0):

      Информация

      Информация

        Посетители, находящиеся в группе Гости, не могут оставлять комментарии в данной новости.

        ↓ Меню




        ↓ Опрос

        Вы добавили сайт в закладки?
        Да
        Нет


        Top 10 за месяц (Фильмы)