.
Авторизация | Регистрация
Хочешь лучшие торренты? Добавь свой email!
Добавить

Торрент скачать бесплатно

» » Счастье из осколков (2017) WEB-DL [H.264 / 1080p-LQ] (серии 1-2 из 2) торрент скачать бесплатно




    Счастье из осколков (2017) WEB-DL [H.264 / 1080p-LQ] (серии 1-2 из 2) торрент скачать бесплатно

    Опубликовал: Админ | Дата: 9-10-2017, 05:00 | Просмотров: 0

    Производство: Россия
    Жанр: мелодрама
    Режиссер: Роман Нестеренко

    Актеры
    Александр Константинов, Дарья Егорова, Вячеслав Чепурченко, Анатолий Котенёв, Эльдар Калимулин, Яна Чигир, Евгения Вайс, Александр Загоскин, Андрей Лебедев, Екатерина Шмакова и др.

    Описание

    Жанна — дочь богатого бизнесмена, нетерпимая и избалованная особа. Саша — ее скромный водитель. Он должен содержать больную мать и младшего брата, поэтому покорно выносит все капризные выходки своей работодательницы.
    Сквозь призму своего высокомерия героиня не замечает, как несправедливо относится к Саше. Однажды она и вовсе срывается, и увольняет своего водителя без всякой причины.
    Жанна не подозревает, что человек, которого она ни во что не ставила, вскоре окажется ее последней надеждой на спасение…

    Возраст: 16+ (зрителям, достигшим 16 лет)
    Дата российской премьеры: 7 октября 2017
    Релиз от: Алехаndr
    Продолжительность: ~01: 30: 00 серия
    Качество видео: WEB-DL
    Видео: AVC/H.264, 1920x1080 (16: 9), ~2840 Kbps
    Аудио: AC3, 2 ch, 192 Kbps

    Общее
    Уникальный идентификатор : 208000267597605135861591782125358321529 (0x9C7B64F621D4B0BCA4B24836CD1C8F79)
    Полное имя : F: \Счастье из осколков (2017).by.Алехаndr\Серия 1.by.Алехаndr.mkv
    Формат : Matroska
    Версия формата : Version 4/Version 2
    Размер файла : 1, 98 Гбайт
    Продолжительность : 1 ч. 31 м.
    Общий поток : 3093 Кбит/сек
    Программа кодирования : Lavf57.71.100
    Библиотека кодирования : Lavf57.71.100
    ErrorDetectionType : Per level 1
    Видео
    Идентификатор : 1
    Формат : AVC
    Формат/Информация : Advanced Video Codec
    Профиль формата : High@L4
    Настройки формата : CABAC/2 Ref Frames
    Параметр CABAC формата : Да
    Параметр RefFrames формата : 2 кадра
    Идентификатор кодека : V_MPEG4/ISO/AVC
    Продолжительность : 1 ч. 31 м.
    Битрейт : 2839 Кбит/сек
    Ширина : 1920 пикселей
    Высота : 1080 пикселей
    Соотношение сторон : 16: 9
    Режим частоты кадров : Постоянный
    Частота кадров : 25, 000 кадров/сек
    Цветовое пространство : YUV
    Субдискретизация насыщенности : 4: 2: 0
    Битовая глубина : 8 бит
    Тип развёртки : Прогрессивная
    Бит/(Пиксели*Кадры) : 0.055
    Размер потока : 1, 81 Гбайт (92%)
    Default : Да
    Forced : Нет
    Цветовой диапазон : Limited
    Основные цвета : BT.709
    Характеристики трансфера : BT.709
    Коэффициенты матрицы : BT.709
    Аудио
    Идентификатор : 2
    Формат : AC-3
    Формат/Информация : Audio Coding 3
    Параметр Endianness формата : Big
    Идентификатор кодека : A_AC3
    Продолжительность : 1 ч. 31 м.
    Вид битрейта : Постоянный
    Битрейт : 192 Кбит/сек
    Каналы : 2 канала
    Расположение каналов : Front: L R
    Частота : 44, 1 КГц
    Частота кадров : 28, 711 кадров/сек (1536 SPF)
    Битовая глубина : 16 бит
    Метод сжатия : С потерями
    Задержка видео : -40 мс.
    Размер потока : 126 Мбайт (6%)
    Язык : unknown
    ServiceKind/String : Complete Main
    Default : Да
    Forced : Нет

    Скриншоты для ознакомления



    Все одноименные релизы в Клубе
    Время раздачи: 24/7 (круглосуточно) (до появления первых 3-5 скачавших)

    Онлайн видео Счастье из осколков (2017) WEB-DL [H.264



    Счастье из осколков (2017) WEB-DL [H.264/1080p-LQ] (серии 1-2 из 2)
    загрузка...
    Рейтинг →
     (голосов: 1, оценка 3/5, голосовать можно 1 раз )

    Другие торренты по теме:

  • Счастье из осколков (2017) WEB-DLRip [H.264] (серии 1-2 из 2)


    • Комментарии (0):

      Информация

      Информация

        Посетители, находящиеся в группе Гости, не могут оставлять комментарии в данной новости.

        ↓ Меню




        ↓ Опрос

        Вы добавили сайт в закладки?
        Да
        Нет


        Top 10 за месяц (Фильмы)