.
Авторизация | Регистрация
Хочешь лучшие торренты? Добавь свой email!
Добавить

Торрент скачать бесплатно

» » Улица (2017) WEB-DL [H.264 / 720p-LQ] (сезон 1, серии 1-4 из 16) (обновляемая) торрент скачать бесплатно




    Улица (2017) WEB-DL [H.264 / 720p-LQ] (сезон 1, серии 1-4 из 16) (обновляемая) торрент скачать бесплатно

    Опубликовал: Админ | Дата: 9-10-2017, 05:00 | Просмотров: 0

    Производство: Россия/ТНТ, ГудСториМедиа
    Жанр: драма, комедия, мелодрама, триллер
    Режиссер: Жанна Кадникова, Николай Бурлак, Михаил Соловьёв

    Актеры
    Егор Клинаев, Ольга Баранова, Владимир Хацкевич, Екатерина Седик, Павел Савинков, Сергей Змичеревский, Артемий Падалка, Марина Богатова, Ксения Жданова, Марта Дромашко, Александр Терехов

    Описание

    Улица — это история жителей одной из улиц спального района большого города. Школьники и студенты, домохозяйки и продавцы, олигархи и простые рабочие — здесь встретятся более 30 персонажей разного возраста и социального статуса, у каждого из них своя история. В большой Вселенной Улицы нет главных и второстепенных героев, здесь есть бурная жизнь с ее радостями, горестями, казусами и косяками, страхами, любовными переживаниями и трагедиями. Это история про всех нас и наших соседей.

    Возраст: 16+ (зрителям, достигшим 16 лет)
    Продолжительность: ~ 00: 27: 00 серия
    Качество видео: WEB-DL
    Видео: AVC/H.264, 1280x720, ~3490 Kbps
    Аудио: AC3, 2 ch, 192 Kbps

    General
    Unique ID : 234905742498177663947741151670937796869 (0xB0B9334AB31A62B28906F6437F3B4105)
    Complete name : D: \СЕРИАЛЫ\УЛИЦА\Ulica.2017.WEB-DL(720p).OlLanDGroup\01.Ulica.2017.WEB-DL(720p).OlLanDGroup.mkv
    Format : Matroska
    Format version : Version 2
    File size : 741 MiB
    Duration : 27 min 35 s
    Overall bit rate : 3 755 kb/s
    Encoded date : UTC 2017-10-02 17: 38: 09
    Writing application : mkvmerge v7.8.0 (\\'River Man\\') 32bit built on Apr 3 2015 12: 11: 22
    Writing library : libebml v1.3.1 + libmatroska v1.4.2
    Video
    ID : 1
    Format : AVC
    Format/Info : Advanced Video Codec
    Format profile : High@L3.1
    Format settings, CABAC : Yes
    Format settings, RefFrames : 1 frame
    Format settings, GOP : M=1, N=12
    Codec ID : V_MPEG4/ISO/AVC
    Duration : 27 min 35 s
    Bit rate : 3 488 kb/s
    Width : 1 280 pixels
    Height : 720 pixels
    Display aspect ratio : 16: 9
    Frame rate mode : Constant
    Frame rate : 25.000 FPS
    Standard : Component
    Color space : YUV
    Chroma subsampling : 4: 2: 0
    Bit depth : 8 bits
    Scan type : Progressive
    Bits/(Pixel*Frame) : 0.151
    Stream size : 688 MiB (93%)
    Default : Yes
    Forced : No
    Color range : Limited
    Audio
    ID : 2
    Format : AC-3
    Format/Info : Audio Coding 3
    Format settings, Endianness : Big
    Codec ID : A_AC3
    Duration : 27 min 35 s
    Bit rate mode : Constant
    Bit rate : 192 kb/s
    Channel(s) : 2 channels
    Channel positions : Front: L R
    Sampling rate : 48.0 kHz
    Frame rate : 31.250 FPS (1536 SPF)
    Bit depth : 16 bits
    Compression mode : Lossy
    Stream size : 37.9 MiB (5%)
    Service kind : Complete Main
    Default : Yes
    Forced : No


    Онлайн видео Улица (2017) WEB-DL [H.264



    Улица (2017) WEB-DL [H.264/720p-LQ] (сезон 1, серии 1-4 из 16) (обновляемая)
    загрузка...
    Рейтинг →
     (голосов: 1, оценка 5/5, голосовать можно 1 раз )

    Другие торренты по теме:

  • Улица потрошителя / Ripper Street (2014) WEBRip (сезон 3, серии 1 из 8) NewStudio (обновляемая)скачать через торрент бесплатно
  • Мать / Mayrig / Mother | Улица Паради, дом 588 / 588 rue Paradis (1991, 1992) DVD9 скачать через торрент бесплатно
  • Улица веселая. Выпуск 1 (2015.06.06) SATRip скачать через торрент бесплатно
  • Улица веселая. Выпуск 2 (2015.06.13) SATRip скачать через торрент бесплатно
  • Улица веселая. Выпуск 3 (2015.06.20) SATRip скачать через торрент бесплатно
  • Улица веселая. Выпуск 4 (2015.06.27) SATRip скачать через торрент бесплатно
  • Улица веселая. Выпуск 5 (2015.07.03) SATRip скачать через торрент бесплатно
  • Улица веселая. Выпуск 6 (2015.07.11) SATRip скачать через торрент бесплатно


    • Комментарии (0):

      Информация

      Информация

        Посетители, находящиеся в группе Гости, не могут оставлять комментарии в данной новости.

        ↓ Меню




        ↓ Опрос

        Вы добавили сайт в закладки?
        Да
        Нет


        Top 10 за месяц (Фильмы)