.
Авторизация | Регистрация
Хочешь лучшие торренты? Добавь свой email!
Добавить

Торрент скачать бесплатно

» » Счастье из осколков (2017) WEB-DLRip [H.264] (серии 1-2 из 2) торрент скачать бесплатно




    Счастье из осколков (2017) WEB-DLRip [H.264] (серии 1-2 из 2) торрент скачать бесплатно

    Опубликовал: Админ | Дата: 9-10-2017, 05:00 | Просмотров: 0

    Производство: Россия | Калейдоскоп фильм, Бабблгам продакшн
    Жанр: мелодрама
    Режиссер: Роман Нестеренко
    Продюсеры: Александр Кушаев, Анастасия Кавуновская, Андрей Кретов

    Актеры
    Александр Константинов, Дарья Егорова, Вячеслав Чепурченко, Анатолий Котенёв, Эльдар Калимулин, Яна Чигир, Евгения Вайс, Александр Загоскин, Андрей Лебедев, Екатерина Шмакова.

    Описание

    Жанна — дочь богатого бизнесмена, нетерпимая и избалованная особа. Саша — ее скромный водитель. Он должен содержать больную мать и младшего брата, поэтому покорно выносит все капризные выходки своей работодательницы. Сквозь призму своего высокомерия героиня не замечает, как несправедливо относится к Саше. Однажды она и вовсе срывается, и увольняет своего водителя без всякой причины. Жанна не подозревает, что человек, которого она ни во что не ставила, вскоре окажется ее последней надеждой на спасение.

    Возраст: 16+ (зрителям, достигшим 16 лет)
    Дата российской премьеры: 7 октября 2017
    Продолжительность: ~01: 30: 00 серия
    Качество видео: WEB-DLRip
    Видео: AVC/H.264, 1024x576 (16: 9), ~1600 kbps, 25.00 fps
    Аудио: AC3, 2 ch, 192 kbps

    General
    Unique ID : 245062155866663165245609217758928735113 (0xB85D4121CC57FB4F9E6617D026A28B89)
    Complete name : D: \Счастье из осколков 2017 WEB-DLRip AVC\01_Счастье из осколков_2017_WEB-DLRip_AVC.mkv
    Format : Matroska
    Format version : Version 2
    File size : 1.14 GiB
    Duration : 1 h 30 min
    Overall bit rate : 1 794 kb/s
    Encoded date : UTC 2017-10-07 21: 30: 28
    Writing application : mkvmerge v7.8.0 (\\'River Man\\') 32bit built on Apr 3 2015 12: 11: 22
    Writing library : libebml v1.3.1 + libmatroska v1.4.2
    Video
    ID : 1
    Format : AVC
    Format/Info : Advanced Video Codec
    Format profile : High@L4.1
    Format settings, CABAC : Yes
    Format settings, ReFrames : 9 frames
    Codec ID : V_MPEG4/ISO/AVC
    Duration : 1 h 30 min
    Bit rate : 1 600 kb/s
    Width : 1 024 pixels
    Height : 576 pixels
    Display aspect ratio : 16: 9
    Frame rate mode : Constant
    Frame rate : 25.000 FPS
    Color space : YUV
    Chroma subsampling : 4: 2: 0
    Bit depth : 8 bits
    Scan type : Progressive
    Bits/(Pixel*Frame) : 0.109
    Stream size : 1 019 MiB (87%)
    Writing library : x264 core 146 r2538 121396c
    Encoding settings : cabac=1/ref=9/deblock=1: -2: -1/analyse=0x3: 0x113/me=umh/subme=9/psy=1/psy_rd=1.00: 0.15/mixed_ref=1/me_range=32/chroma_me=1/trellis=2/8x8dct=1/cqm=0/deadzone=21, 11/fast_pskip=0/chroma_qp_offset=-3/threads=18/lookahead_threads=3/sliced_threads=0/nr=0/decimate=1/interlaced=0/bluray_compat=0/constrained_intra=0/bframes=9/b_pyramid=2/b_adapt=2/b_bias=0/direct=1/weightb=1/open_gop=0/weightp=2/keyint=250/keyint_min=25/scenecut=40/intra_refresh=0/rc_lookahead=40/rc=2pass/mbtree=0/bitrate=1600/ratetol=1.0/qcomp=0.60/qpmin=0/qpmax=69/qpstep=4/cplxblur=20.0/qblur=0.5/vbv_maxrate=14000/vbv_bufsize=14000/nal_hrd=none/filler=0/ip_ratio=1.40/pb_ratio=1.30/aq=2: 1.00
    Default : Yes
    Forced : No
    Color range : Limited
    Color primaries : BT.709
    Transfer characteristics : BT.709
    Matrix coefficients : BT.709
    Audio
    ID : 2
    Format : AC-3
    Format/Info : Audio Coding 3
    Format settings, Endianness : Big
    Codec ID : A_AC3
    Duration : 1 h 30 min
    Bit rate mode : Constant
    Bit rate : 192 kb/s
    Channel(s) : 2 channels
    Channel positions : Front: L R
    Sampling rate : 44.1 kHz
    Frame rate : 28.711 FPS (1536 spf)
    Bit depth : 16 bits
    Compression mode : Lossy
    Stream size : 125 MiB (11%)
    Service kind : Complete Main
    Default : Yes
    Forced : No

    Скриншоты для ознакомления



    Все одноименные релизы в Клубе
    Время раздачи: 24/7 (до появления первых 3-5 скачавших)

    Онлайн видео Счастье из осколков (2017) WEB



    Счастье из осколков (2017) WEB-DLRip [H.264] (серии 1-2 из 2)
    загрузка...
    Рейтинг →
     (голосов: 1, оценка 4/5, голосовать можно 1 раз )

    Другие торренты по теме:

  • Счастье из осколков (2017) WEB-DL [H.264 / 1080p-LQ] (серии 1-2 из 2)


    • Комментарии (0):

      Информация

      Информация

        Посетители, находящиеся в группе Гости, не могут оставлять комментарии в данной новости.

        ↓ Меню




        ↓ Опрос

        Вы добавили сайт в закладки?
        Да
        Нет


        Top 10 за месяц (Фильмы)