.
Авторизация | Регистрация
Хочешь лучшие торренты? Добавь свой email!
Добавить

Торрент скачать бесплатно

» » Декорации убийства (2015) WEBRip (серии 1-4 из 4) торрент скачать бесплатно




    Декорации убийства (2015) WEBRip (серии 1-4 из 4) торрент скачать бесплатно

    Опубликовал: Админ | Дата: 9-10-2017, 05:00 | Просмотров: 0

    Производство: Россия
    Жанр: детектив
    Режиссер: Евгений Звездаков

    Актеры
    Сергей Барковский, Мария Луговая, Александр Пашков, Татьяна Ткач, Эрнест Тимерханов, Екатерина Шумакова, Диана Милютина и др.

    Описание

    Необычное трио — следователи Анна и Вадим, а также театральный режиссёр Карманов — расследует загадочные преступления. Карманов убеждён, что все возможные сюжеты уже были описаны: в пьесах Шекспира, в произведениях Гоголя, в сказках… И чтобы найти убийцу, надо всего лишь понять, с каким из вечных сюжетов столкнулись сыщики. Поскольку Карманов — убеждённый домосед, практическая сторона расследования ложится на плечи Анны и Вадима. Они служат источниками информации для режиссёра, ищут и задерживают подозреваемых.

    Возраст: 12+ (зрителям, достигшим 12 лет)
    Релиз от: Алехаndr
    Продолжительность: ~00: 45: 00 серия
    Качество видео: WEBRip
    Видео: Xvid, 720x400 (16: 9), ~1415 Kbps
    Аудио: AC3, 2 ch, 192 Kbps

    Общее
    Полное имя : D: \Декорации убийства (2015).by.Алехаndr\Серия 1.by.Алехаndr.avi
    Формат : AVI
    Формат/Информация : Audio Video Interleave
    Размер файла : 520 Мбайт
    Продолжительность : 44 м. 53 с.
    Общий поток : 1620 Кбит/сек
    Программа кодирования : Lavf54.63.104
    Видео
    Идентификатор : 0
    Формат : xvid
    Идентификатор кодека : xvid
    Продолжительность : 44 м. 53 с.
    Битрейт : 1417 Кбит/сек
    Ширина : 720 пикселей
    Высота : 400 пикселей
    Соотношение сторон : 16: 9
    Частота кадров : 25, 000 кадров/сек
    Тип развёртки : Прогрессивная
    Бит/(Пиксели*Кадры) : 0.197
    Размер потока : 455 Мбайт (87%)
    Аудио
    Идентификатор : 1
    Формат : AC-3
    Формат/Информация : Audio Coding 3
    Параметр Endianness формата : Big
    Идентификатор кодека : 2000
    Продолжительность : 44 м. 53 с.
    Вид битрейта : Постоянный
    Битрейт : 192 Кбит/сек
    Каналы : 2 канала
    Расположение каналов : Front: L R
    Частота : 48, 0 КГц
    Частота кадров : 31, 250 кадров/сек (1536 SPF)
    Битовая глубина : 16 бит
    Метод сжатия : С потерями
    Размер потока : 61, 6 Мбайт (12%)
    Выравнивание : Соединение по промежуткам
    Продолжительность промежутка : 32 мс. (0, 80 видеокадр)
    ServiceKind/String : Complete Main

    Скриншоты для ознакомления



    Все одноименные релизы в Клубе
    Время раздачи: 24/7 (круглосуточно) (до появления первых 3-5 скачавших)

    Онлайн видео Декорации убийства (2015) WEBRip (серии 1



    Декорации убийства (2015) WEBRip (серии 1-4 из 4)
    загрузка...
    Рейтинг →
     (голосов: 1, оценка 5/5, голосовать можно 1 раз )

    Другие торренты по теме:

  • Декорации убийства (2015) SATRip (серии 1-4 из 4) скачать через торрент бесплатно


    • Комментарии (0):

      Информация

      Информация

        Посетители, находящиеся в группе Гости, не могут оставлять комментарии в данной новости.

        ↓ Меню




        ↓ Опрос

        Вы добавили сайт в закладки?
        Да
        Нет


        Top 10 за месяц (Фильмы)