.
Авторизация | Регистрация
Хочешь лучшие торренты? Добавь свой email!
Добавить

Торрент скачать бесплатно

» » Чисто московские убийства (2017) WEB-DL [H.264 / 1080p-LQ] (серии 1-2 из 8) (обновляемая) торрент скачать бесплатно




    Чисто московские убийства (2017) WEB-DL [H.264 / 1080p-LQ] (серии 1-2 из 8) (обновляемая) торрент скачать бесплатно

    Опубликовал: Админ | Дата: 9-10-2017, 05:00 | Просмотров: 0

    Производство: Россия
    Жанр: детектив
    Режиссер: Филипп Коршунов

    Актеры
    Людмила Чурсина, Сергей Беляев, Александр Яцко, Аглая Тарасова, Дмитрий Мазуров, Дарья Дроздовская, Екатерина Семенова, Ольга Богданова, Александр Ефимов, Марианна Шульц и др.

    Описание

    Владелица сети элитных салонов красоты Екатерина Власова — женщина с очень скверным характером. Она своенравна, цинична и крайне упряма. Благодаря этим свойствам она создала с нуля свою империю, — а старомодные представления о границе между добром и злом помогают ей процветать. Но жизнь в столице заставляет Екатерину проявить себя в новом амплуа — теперь со своим фирменным упрямством она раскрывает преступные замыслы и криминальные интриги...

    Возраст: 12+ (зрителям, достигшим 12 лет)
    Дата российской премьеры: 8 октября 2017
    Релиз от: Алехаndr
    Продолжительность: ~00: 44: 00 серия
    Качество видео: WEB-DL
    Видео: AVC/H.264, 1920x1080 (16: 9), ~3485 Kbps
    Аудио: AC3, 2 ch, 192 Kbps

    Общее
    Уникальный идентификатор : 227104059751340723045461700421263234381 (0xAADAA6A27A196ACF6A5C6801987F154D)
    Полное имя : F: \Чисто московские убийства (2017).by.Алехаndr\Серия 1.by.Алехаndr.mkv
    Формат : Matroska
    Версия формата : Version 4/Version 2
    Размер файла : 1, 15 Гбайт
    Продолжительность : 44 м. 4 с.
    Общий поток : 3749 Кбит/сек
    Программа кодирования : Lavf57.71.100
    Библиотека кодирования : Lavf57.71.100
    ErrorDetectionType : Per level 1
    Видео
    Идентификатор : 1
    Формат : AVC
    Формат/Информация : Advanced Video Codec
    Профиль формата : High@L4
    Настройки формата : CABAC/2 Ref Frames
    Параметр CABAC формата : Да
    Параметр RefFrames формата : 2 кадра
    Идентификатор кодека : V_MPEG4/ISO/AVC
    Продолжительность : 44 м. 4 с.
    Битрейт : 3483 Кбит/сек
    Ширина : 1920 пикселей
    Высота : 1080 пикселей
    Соотношение сторон : 16: 9
    Режим частоты кадров : Постоянный
    Частота кадров : 25, 000 кадров/сек
    Цветовое пространство : YUV
    Субдискретизация насыщенности : 4: 2: 0
    Битовая глубина : 8 бит
    Тип развёртки : Прогрессивная
    Бит/(Пиксели*Кадры) : 0.067
    Размер потока : 1, 07 Гбайт (93%)
    Default : Да
    Forced : Нет
    Цветовой диапазон : Limited
    Основные цвета : BT.709
    Характеристики трансфера : BT.709
    Коэффициенты матрицы : BT.709
    Аудио
    Идентификатор : 2
    Формат : AC-3
    Формат/Информация : Audio Coding 3
    Параметр Endianness формата : Big
    Идентификатор кодека : A_AC3
    Продолжительность : 44 м. 4 с.
    Вид битрейта : Постоянный
    Битрейт : 192 Кбит/сек
    Каналы : 2 канала
    Расположение каналов : Front: L R
    Частота : 44, 1 КГц
    Частота кадров : 28, 711 кадров/сек (1536 SPF)
    Битовая глубина : 16 бит
    Метод сжатия : С потерями
    Задержка видео : -40 мс.
    Размер потока : 60, 5 Мбайт (5%)
    Язык : unknown
    ServiceKind/String : Complete Main
    Default : Да
    Forced : Нет


    Онлайн видео Чисто московские убийства (2017) WEB-DL [H.264



    Чисто московские убийства (2017) WEB-DL [H.264/1080p-LQ] (серии 1-2 из 8) (обновляемая)
    загрузка...
    Рейтинг →
     (голосов: 1, оценка 4/5, голосовать можно 1 раз )

    Другие торренты по теме:

  • Чисто московские убийства (2017) SATRip [H.264] (серии 1-2 из 8) (обновляемая)


    • Комментарии (0):

      Информация

      Информация

        Посетители, находящиеся в группе Гости, не могут оставлять комментарии в данной новости.

        ↓ Меню




        ↓ Опрос

        Вы добавили сайт в закладки?
        Да
        Нет


        Top 10 за месяц (Фильмы)