.
Авторизация | Регистрация
Хочешь лучшие торренты? Добавь свой email!
Добавить

Торрент скачать бесплатно

» » Беглец (2017) SATRip (сезон 1, серии 1-20 из 20) [AD] торрент скачать бесплатно




    Беглец (2017) SATRip (сезон 1, серии 1-20 из 20) [AD] торрент скачать бесплатно

    Опубликовал: Админ | Дата: 9-10-2017, 05:00 | Просмотров: 0

    Телекомпания: РЕН
    Жанр: Комедия, криминал
    Режиссер: Михаил Жерневский

    Актеры
    Иван Охлобыстин, Семён Стругачев, Виктория Полторак, Григорий Сиятвинда, Анастасия Шунина-Махонина, Даниил Вахрушев, Александр Ильин, Ростислав Бершауэр, Максим Лагашкин, Вадим Смирнов

    Описание

    Миша — профессиональный аферист, который подставил своего босса и кинул его на большие деньги. Чтобы избежать смертельно опасных последствий, он сбегает в родной город. В первый же день Миша вступается за свою давнюю любовь Наташу, ссорится с главным криминальным авторитетом по кличке Дон и случайно устраивается на работу в полицию. Теперь он сам ловит преступников, попутно спасаясь от киллера и пытаясь наладить личную жизнь..

    Возраст: 16+ (зрителям, достигшим 16 лет)
    Дата премьеры в РФ: 8 октября 2017

    Продолжительность: ~ 00: 25: 00 серия
    Качество видео: SATRip
    Перевод: Не требуется
    Субтитры: Отсутствуют
    Реклама: Присутствуют вставки текстовой рекламы
    Видео: MPEG4, XviD, 704x456/704х448 , 25.000 fps, 1 502 Kbps (0.187 bit/pixel)
    Аудио: AC-3, 48.0 KHz, 2 ch, 128 Kbps, CBR
    Код: выделить все
    Общее
    Полное имя : D:\[1]\Беглец\Беглец (2017)\Беглец. Серия 01 (2017).avi
    Формат : AVI
    Формат/Информация : Audio Video Interleave
    Размер файла : 286 Мбайт
    Продолжительность : 24 м.
    Общий поток : 1640 Кбит/сек
    Программа кодирования : VirtualDubMod 1.5.10.3 |www.virtualdub-fr.org|| (build 2550/release)
    Библиотека кодирования : VirtualDub build 35576/release
    Видео
    Идентификатор : 0
    Формат : MPEG-4 Visual
    Профиль формата : Advanced Simple@L5
    Параметр BVOP формата : 2
    Параметр QPel формата : Нет
    Параметр GMC формата : Без точки перехода
    Параметр матрицы формата : Default (H.263)
    Идентификатор кодека : XVID
    Идентификатор кодека/Подсказка : XviD
    Продолжительность : 24 м.
    Битрейт : 1502 Кбит/сек
    Ширина : 704 пикселя
    Высота : 456 пикселей
    Соотношение сторон : 3:2
    Частота кадров : 25, 000 кадров/сек
    Цветовое пространство : YUV
    Субдискретизация насыщенности : 4:2:0
    Битовая глубина : 8 бит
    Тип развёртки : Прогрессивная
    Метод сжатия : С потерями
    Бит/(Пиксели*Кадры) : 0.187
    Размер потока : 262 Мбайт (92%)
    Библиотека кодирования : XviD 1.2.1 (UTC 2008-12-04)
    Аудио
    Идентификатор : 1
    Формат : AC-3
    Формат/Информация : Audio Coding 3
    Расширение режима : CM (complete main)
    Параметр Endianness формата : Big
    Идентификатор кодека : 2000
    Продолжительность : 24 м.
    Вид битрейта : Постоянный
    Битрейт : 128 Кбит/сек
    Каналы : 2 канала
    Расположение каналов : Front: L R
    Частота : 48, 0 КГц
    Битовая глубина : 16 бит
    Метод сжатия : С потерями
    Размер потока : 22, 3 Мбайт (8%)
    Выравнивание : Разделение по промежуткам
    Продолжительность промежутка : 40 мс. (1, 00 видеокадр)
    Время предзагрузки промежутка : 500 мс.

    Скриншоты для ознакомления



    Все одноименные релизы в Клубе
    Время раздачи: 24/7. До первых 5 скачавших.

    Онлайн видео Беглец (2017) SATRip (сезон любимого сериала 1, серии 1



    Беглец (2017) SATRip (сезон 1, серии 1-20 из 20) [AD]
    загрузка...
    Рейтинг →
     (голосов: 1, оценка 5/5, голосовать можно 1 раз )

    Другие торренты по теме:

  • Беглец (2016) SATRip [H.264] (серии 1-2 из 2)


    • Комментарии (0):

      Информация

      Информация

        Посетители, находящиеся в группе Гости, не могут оставлять комментарии в данной новости.

        ↓ Меню




        ↓ Опрос

        Вы добавили сайт в закладки?
        Да
        Нет


        Top 10 за месяц (Фильмы)