.
Авторизация | Регистрация
Хочешь лучшие торренты? Добавь свой email!
Добавить

Торрент скачать бесплатно

» » 5-25 (Пять - двадцать пять). Спектакль ЕГТИ, Мастерская В.Кокорин (2006) VHSRip торрент скачать бесплатно




    5-25 (Пять - двадцать пять). Спектакль ЕГТИ, Мастерская В.Кокорин (2006) VHSRip торрент скачать бесплатно

    Опубликовал: Админ | Дата: 9-10-2017, 05:00 | Просмотров: 0

    Производство: Россия
    Жанр: Драма, спектакль
    Режиссер: Ямбор В, Кокорин В.

    Актеры
    Волоцкий Евгений, Ушакова Наталья, Герасимов Руслан, Манцыгин Алексей, Монгилев Сергей, Трясцын Александр.

    Описание

    Спектакль молодых ребят, студентов Екатеринбургского театрального института, мастерская - Кокорин В.В. по пьесе Д. Привалова. В екатеринбургском ТЮЗе.
    Продолжительность: 01: 31: 48
    Качество видео: VHSRip
    Субтитры: Отсутствуют
    Видео: MPEG-2, 720x576@768x576, ~4158 Kbps
    Аудио: MP2, 2 ch, 224 Kbps

    Общее
    Полное имя : D: \вконтакте\5-25\5_25.mpg
    Формат : MPEG-PS
    Размер файла : 2, 87 Гбайт
    Продолжительность : 1 ч. 31 м.
    Режим общего битрейта : Переменный
    Общий поток : 4471 Кбит/сек
    Видео
    Идентификатор : 224 (0xE0)
    Формат : MPEG2
    Профиль формата : Main@Main
    Настройки формата : BVOP
    Параметр BVOP формата : Да
    Параметр матрицы формата : По умолчанию
    Параметр GOP формата : M=3, N=12
    Структура изображения : Frame
    Продолжительность : 1 ч. 31 м.
    Вид битрейта : Переменный
    Битрейт : 4158 Кбит/сек
    Максимальный битрейт : 6000 Кбит/сек
    Ширина : 720 пикселей
    Высота : 576 пикселей
    Соотношение сторон : 4: 3
    Частота кадров : 25, 000 кадров/сек
    Стандарт вещания : PAL
    Цветовое пространство : YUV
    Субдискретизация насыщенности : 4: 2: 0
    Битовая глубина : 8 бит
    Тип развёртки : Чересстрочная
    Порядок развёртки : Нижнее поле первое
    Метод сжатия : С потерями
    Бит/(Пиксели*Кадры) : 0.401
    Временной код первого кадра : 00: 00: 00: 00
    Оригинал временного кода : Group of pictures t_head
    GOP, открыто/закрыто : Закрыто
    Размер потока : 2, 67 Гбайт (93%)
    Основные цвета : BT.601 PAL
    Характеристики трансфера : BT.470 System B, BT.470 System G
    Коэффициенты матрицы : BT.470 System B, BT.470 System G
    Аудио
    Идентификатор : 192 (0xC0)
    Формат : MP2
    Продолжительность : 1 ч. 31 м.
    Вид битрейта : Постоянный
    Битрейт : 224 Кбит/сек
    Каналы : 2 канала
    Частота : 44, 1 КГц
    Метод сжатия : С потерями
    Размер потока : 147 Мбайт (5%)

    Скриншоты для ознакомления



    Все одноименные релизы в Клубе
    Время раздачи: с 09: 00 до 23: 00 (до появления первых 3-5 скачавших)

    5-25 (Пять - двадцать пять). Спектакль ЕГТИ, Мастерская В.Кокорин (2006) VHSRip
    загрузка...
    Рейтинг →
     (голосов: 1, оценка 5/5, голосовать можно 1 раз )

    Другие торренты по теме:

  • Мария Крюгер | Ухо, дыня, сто двадцать пять! (1978) [FB2]


    • Комментарии (0):

      Информация

      Информация

        Посетители, находящиеся в группе Гости, не могут оставлять комментарии в данной новости.

        ↓ Меню




        ↓ Опрос

        Вы добавили сайт в закладки?
        Да
        Нет


        Top 10 за месяц (Фильмы)