.
Авторизация | Регистрация
Хочешь лучшие торренты? Добавь свой email!
Добавить

Торрент скачать бесплатно

» » Тёмная башня / The Dark Tower (2017) BDRip [H.264 / 1080p-LQ] [EN / EN Sub] торрент скачать бесплатно




    Тёмная башня / The Dark Tower (2017) BDRip [H.264 / 1080p-LQ] [EN / EN Sub] торрент скачать бесплатно

    Опубликовал: Админ | Дата: 9-10-2017, 05:00 | Просмотров: 0

    Производство: США, Sony Pictures Entertainment (SPE), Media Rights Capital (MRC), Imagine Entertainment
    Жанр: Боевик, Приключения, Фэнтези
    Режиссер: Николай Арсель
    Продюсер: Дж. Мак Браун, Черил Иток, Акива Голдсман, ...

    Актеры
    Идрис Эльба, Мэттью МакКонахи, Том Тейлор, Клаудия Ким, Фрэн Кранц, Эбби Ли, Джеки Эрл Хейли, Кэтрин Уинник, Деннис Хейсбёрт, Майкл Барбиери ...

    Описание

    Наш мир — не единственный из существующих. Заклятые враги Роланд Дискейн, последний из ордена стрелков, и Уолтер О’Дим, известный также как Человек в черном, ведут извечную борьбу. На кону — мифическая Темная Башня, последний оплот и надежда вселенной, без которой мир будет повержен в полный хаос и разрушение. Силам добра и зла суждено столкнуться в последней схватке, ведь Роланд Дискейн — единственный, кому под силу остановить Человека в черном, прежде чем тот разрушит Темную Башню.

    Возраст: 16+ (зрителям, достигшим 16 лет)
    Рейтинг MPAA: PG-13 (детям до 13 лет просмотр нежелателен)
    Премьера (мир): 3 августа 2017, ...
    Премьера (РФ): 3 августа 2017, WDSSPR

    Продолжительность: 01: 34: 45
    Качество видео: BDRip
    Перевод: Отсутствует
    Язык озвучки: Английский
    Субтитры: Английские
    Видео: AVC, 1920x800 (2.40: 1), 23.976 fps, 5 400 Kbps (0.147 bit/pixel)
    Аудио: DTS, 48.0 KHz, 6 ch, 1 510 Kbps, CBR (English)
    General
    Complete name : The.Dark.Tower.2017.1080p.BluRay.x264.DTS-SHITBOX.mkv
    Format : Matroska
    Format version : Version 4/Version 2
    File size : 4.51 GiB
    Duration : 1 h 34 min
    Overall bit rate : 6 816 kb/s
    Encoded date : UTC 2017-10-08 01: 44: 29
    Writing application : mkvmerge v16.0.0 (\\'Protest\\') 64-bit
    Writing library : libebml v1.3.5 + libmatroska v1.4.8
    Video
    ID : 1
    Format : AVC
    Format/Info : Advanced Video Codec
    Format profile : High@L4.1
    Format settings : CABAC/4 Ref Frames
    Format settings, CABAC : Yes
    Format settings, RefFrames : 4 frames
    Codec ID : V_MPEG4/ISO/AVC
    Duration : 1 h 34 min
    Bit rate : 5 400 kb/s
    Width : 1 920 pixels
    Height : 800 pixels
    Display aspect ratio : 2.40: 1
    Frame rate mode : Constant
    Frame rate : 23.976 (24000/1001) FPS
    Color space : YUV
    Chroma subsampling : 4: 2: 0
    Bit depth : 8 bits
    Scan type : Progressive
    Bits/(Pixel*Frame) : 0.147
    Stream size : 3.42 GiB (76%)
    Writing library : x264 core 142 r2479 dd79a61
    Encoding settings : cabac=1/ref=1/deblock=1: 0: 0/analyse=0x3: 0x113/me=hex/subme=2/psy=1/psy_rd=1.00: 0.00/mixed_ref=0/me_range=16/chroma_me=1/trellis=0/8x8dct=1/cqm=0/deadzone=21, 11/fast_pskip=1/chroma_qp_offset=0/threads=12/lookahead_threads=4/sliced_threads=0/nr=0/decimate=1/interlaced=0/bluray_compat=0/constrained_intra=0/bframes=3/b_pyramid=2/b_adapt=1/b_bias=0/direct=1/weightb=1/open_gop=0/weightp=1/keyint=240/keyint_min=24/scenecut=40/intra_refresh=0/rc_lookahead=10/rc=abr/mbtree=1/bitrate=5400/ratetol=1.0/qcomp=0.60/qpmin=0/qpmax=69/qpstep=4/vbv_maxrate=62500/vbv_bufsize=78125/nal_hrd=none/filler=0/ip_ratio=1.40/aq=1: 1.00
    Language : English
    Default : Yes
    Forced : No
    Color range : Limited
    Color primaries : BT.709
    Transfer characteristics : BT.709
    Matrix coefficients : BT.709
    Audio
    ID : 2
    Format : DTS
    Format/Info : Digital Theater Systems
    Mode : 16
    Format settings, Endianness : Big
    Codec ID : A_DTS
    Duration : 1 h 34 min
    Bit rate mode : Constant
    Bit rate : 1 509 kb/s
    Channel(s) : 6 channels
    Channel positions : Front: L C R, Side: L R, LFE
    Sampling rate : 48.0 kHz
    Frame rate : 93.750 FPS (512 SPF)
    Bit depth : 16 bits
    Compression mode : Lossy
    Delay relative to video : -83 ms
    Stream size : 1 023 MiB (22%)
    Language : English
    Default : Yes
    Forced : No
    Text
    ID : 3
    Format : UTF-8
    Codec ID : S_TEXT/UTF8
    Codec ID/Info : UTF-8 Plain Text
    Language : English
    Default : Yes
    Forced : No
    Menu
    00: 00: 00.000 : : Chapter 1
    00: 05: 51.268 : : Chapter 2
    00: 10: 35.844 : : Chapter 3
    00: 16: 33.618 : : Chapter 4
    00: 21: 54.897 : : Chapter 5
    00: 25: 35.534 : : Chapter 6
    00: 31: 01.902 : : Chapter 7
    00: 36: 25.100 : : Chapter 8
    00: 40: 50.323 : : Chapter 9
    00: 46: 02.093 : : Chapter 10
    00: 53: 18.404 : : Chapter 11
    00: 58: 42.853 : : Chapter 12
    01: 03: 51.119 : : Chapter 13
    01: 10: 37.734 : : Chapter 14
    01: 15: 53.174 : : Chapter 15
    01: 21: 15.079 : : Chapter 16

    Скриншоты для ознакомления




    Все одноименные релизы в Клубе
    Время раздачи: 24/7 (круглосуточно) (до появления первых 3-5 скачавших)

    Онлайн видео Тёмная башня



    Тёмная башня/The Dark Tower (2017) BDRip [H.264/1080p-LQ] [EN/EN Sub]
    загрузка...
    Рейтинг →
     (голосов: 1, оценка 5/5, голосовать можно 1 раз )

    Другие торренты по теме:

  • Тёмная башня / The Dark Tower (2017) TS [AD]
  • Тёмная башня / The Dark Tower (2017) HDRip [MVO] [AD]
  • Тёмная башня / The Dark Tower (2017) BDRip [H.264 / 720p] [MVO] [AD]
  • Тёмная башня / The Dark Tower (2017) BDRip [H.264 / 1080p-LQ] [MVO] [AD]
  • Тёмная башня / The Dark Tower (2017) HDRip [Line] [AD]
  • Тёмная башня / The Dark Tower (2017) BDRip [H.264 / 1080p-LQ] [Line] [AD]
  • Тёмная башня / The Dark Tower (2017) BDRip [H.264 / 720p] [Line] [AD]
  • Тёмная башня / The Dark Tower (2017) BDRemux [H.264 / 1080p] [EN / EN and other Sub]


    • Комментарии (0):

      Информация

      Информация

        Посетители, находящиеся в группе Гости, не могут оставлять комментарии в данной новости.

        ↓ Меню




        ↓ Опрос

        Вы добавили сайт в закладки?
        Да
        Нет


        Top 10 за месяц (Фильмы)