.
Авторизация | Регистрация
Хочешь лучшие торренты? Добавь свой email!
Добавить

Торрент скачать бесплатно

» » Хорошая женщина / A Good Woman (2004) WEB-DLRip [H.264] торрент скачать бесплатно




    Хорошая женщина / A Good Woman (2004) WEB-DLRip [H.264] торрент скачать бесплатно

    Опубликовал: Админ | Дата: 9-10-2017, 05:00 | Просмотров: 0

    Производство: США, Испания, Италия, Великобритания, Люксембург/Beyond Films, Magic Hour Media, Thema Production
    Жанр: Драма, Мелодрама, Комедия
    Режиссер: Майк Баркер

    Актеры
    Хелен Хант, Скарлетт Йоханссон, Том Уилкинсон, Стивен Кэмпбелл Мур, Марк Амберс, Милена Вукотич, Диана Хардкэсл, Роджер Хэммонд, Джон Стэндинг, Джорджиа Массетти, Шара Орано, Джейн Хау, Брюс МакГуайр, Майкл Стром, Антонио Барбаро, Валентина Д’Ува, Филиппо Санторо, Аугусто Дзукки, Даниэла Станга и др.

    Описание

    Экранизация пьесы Оскара Уальда Веер леди Уиндермир.
    В начале тридцатых годов двадцатого века в Нью-Йорке проживает вдовствующая госпожа Эрлинн, пользующаяся материальной благосклонностью нескольких богатых женатых любовников. Когда же ее денежные аппетиты в Нью-Йорке исчерпаны, госпожа Эрлинн отправляется в Рим, где на солнечном итальянском побережье выбирает себе в жертвы Роберта Уиндемира, богатого англичанина, женатого на молоденькой красавице Мэг. Факт наличия более юной соперницы не остановил госпожу Эрлинн и она пускает в ход все свои хитрые приемы, опутывая мистера Уиндемира паутиной сплетен и лжи…

    Возраст: 12+ (зрителям, достигшим 12 лет)
    Рейтинг MPAA: PG (рекомендуется присутствие родителей)
    Продолжительность: 01: 33: 18
    Качество видео: WEB-DLRip
    Перевод: Двуголосый закадровый
    Субтитры: Русские, английские
    Видео: AVC/H.264, 1024х576, ~2350 Kbps
    Аудио#1: AC3, 6 ch, 448 kbps | Русский – DVO
    Аудио#2: AC3, 2 ch, 192 kbps | Украинский – DVO
    Аудио#3: AC3, 6 ch, 448 kbps | Английский – оригинал

    Общее
    Уникальный идентификатор : 187001952272962355710713451676346376849 (0x8CAF441592010C1C9E4700B07E406291)
    Полное имя : F: \Хелен Хант\Хорошая женщина. 2004\Хорошая женщина. 2004.mkv
    Формат : Matroska
    Версия формата : Version 4/Version 2
    Размер файла : 2, 24 Гбайт
    Продолжительность : 1 ч. 33 м.
    Общий поток : 3440 Кбит/сек
    Название фильма : Release for Topmost
    Дата кодирования : UTC 2017-10-08 10: 10: 05
    Программа кодирования : mkvmerge v6.2.0 (\\'Promised Land\\') built on Apr 28 2013 12: 22: 01
    Библиотека кодирования : libebml v1.3.0 + libmatroska v1.4.0
    Attachment : Yes
    Видео
    Идентификатор : 1
    Формат : AVC
    Формат/Информация : Advanced Video Codec
    Профиль формата : High@L4.1
    Параметр CABAC формата : Да
    Параметр ReFrames формата : 12 кадров
    Идентификатор кодека : V_MPEG4/ISO/AVC
    Продолжительность : 1 ч. 33 м.
    Битрейт : 2350 Кбит/сек
    Ширина : 1024 пикселя
    Высота : 576 пикселей
    Соотношение сторон : 16: 9
    Режим частоты кадров : Постоянный
    Частота кадров : 23, 976 кадра/сек
    Цветовое пространство : YUV
    Субдискретизация насыщенности : 4: 2: 0
    Битовая глубина : 8 бит
    Тип развёртки : Прогрессивная
    Бит/(Пиксели*Кадры) : 0.166
    Размер потока : 1, 49 Гбайт (66%)
    Заголовок : Хорошая женщина. 2004 (Release for Topmost)
    Библиотека кодирования : x264 core 146 r2538 121396c
    Настройки программы : cabac=1/ref=12/deblock=1: -3: -3/analyse=0x3: 0x113/me=umh/subme=11/psy=1/psy_rd=1.00: 0.15/mixed_ref=1/me_range=32/chroma_me=1/trellis=2/8x8dct=1/cqm=0/deadzone=21, 11/fast_pskip=0/chroma_qp_offset=-3/threads=12/lookahead_threads=2/sliced_threads=0/nr=0/decimate=0/interlaced=0/bluray_compat=0/constrained_intra=0/bframes=8/b_pyramid=2/b_adapt=2/b_bias=0/direct=1/weightb=1/open_gop=0/weightp=2/keyint=240/keyint_min=23/scenecut=40/intra_refresh=0/rc=2pass/mbtree=0/bitrate=2350/ratetol=1.0/qcomp=0.60/qpmin=0/qpmax=69/qpstep=4/cplxblur=20.0/qblur=0.5/ip_ratio=1.40/pb_ratio=1.30/aq=1: 0.90
    Язык : English
    Default : Да
    Forced : Нет
    Аудио #1
    Идентификатор : 2
    Формат : AC-3
    Формат/Информация : Audio Coding 3
    Расширение режима : CM (complete main)
    Параметр Endianness формата : Big
    Идентификатор кодека : A_AC3
    Продолжительность : 1 ч. 33 м.
    Вид битрейта : Постоянный
    Битрейт : 448 Кбит/сек
    Каналы : 6 каналов
    Расположение каналов : Front: L C R, Side: L R, LFE
    Частота : 48, 0 КГц
    Битовая глубина : 16 бит
    Метод сжатия : С потерями
    Размер потока : 299 Мбайт (13%)
    Заголовок : AC3, 6 ch, 448 Kbps - DVO
    Язык : Russian
    Default : Да
    Forced : Нет
    Аудио #2
    Идентификатор : 3
    Формат : AC-3
    Формат/Информация : Audio Coding 3
    Расширение режима : CM (complete main)
    Параметр Endianness формата : Big
    Идентификатор кодека : A_AC3
    Продолжительность : 1 ч. 33 м.
    Вид битрейта : Постоянный
    Битрейт : 192 Кбит/сек
    Каналы : 2 канала
    Расположение каналов : Front: L R
    Частота : 48, 0 КГц
    Битовая глубина : 16 бит
    Метод сжатия : С потерями
    Размер потока : 128 Мбайт (6%)
    Заголовок : AC3, 2 ch, 192 Kbps
    Язык : Ukrainian
    Default : Нет
    Forced : Нет
    Аудио #3
    Идентификатор : 4
    Формат : AC-3
    Формат/Информация : Audio Coding 3
    Расширение режима : CM (complete main)
    Параметр Endianness формата : Big
    Идентификатор кодека : A_AC3
    Продолжительность : 1 ч. 33 м.
    Вид битрейта : Постоянный
    Битрейт : 448 Кбит/сек
    Каналы : 6 каналов
    Расположение каналов : Front: L C R, Side: L R, LFE
    Частота : 48, 0 КГц
    Битовая глубина : 16 бит
    Метод сжатия : С потерями
    Размер потока : 299 Мбайт (13%)
    Заголовок : AC3, 6 ch, 448 Kbps - Original
    Язык : English
    Default : Нет
    Forced : Нет
    Текст #1
    Идентификатор : 5
    Формат : UTF-8
    Идентификатор кодека : S_TEXT/UTF8
    Идентификатор кодека/Информация : UTF-8 Plain Text
    Язык : Russian
    Default : Нет
    Forced : Нет
    Текст #2
    Идентификатор : 6
    Формат : UTF-8
    Идентификатор кодека : S_TEXT/UTF8
    Идентификатор кодека/Информация : UTF-8 Plain Text
    Язык : English
    Default : Нет
    Forced : Нет

    Скриншоты для ознакомления



    Все одноименные релизы в Клубе
    Время раздачи: 24/7 до 5 скачавших (до появления первых 3-5 скачавших)

    Онлайн видео Хорошая женщина



    Хорошая женщина/A Good Woman (2004) WEB-DLRip [H.264]
    загрузка...
    Рейтинг →
     (голосов: 1, оценка 4/5, голосовать можно 1 раз )

    Другие торренты по теме:

  • Хорошая жена / Правильная жена / The Good Wife (2014) WEB-DLRip (сезон 6, серии 1 из 22) NewStudio (обновляемая)
  • Хорошая жена / The Good Wife (2014) WEB-DL [H.264 / 720p-LQ] (Сезон 6, Серии 1 из 22) NewStudio (Обновляемая)
  • Всегда хорошая погода / Its Always Fair Weather (1955) DVDRip [H.264] скачать через торрент бесплатно
  • Иосиф Ликстанов и др. | Хорошая работа (1953) [FB2]скачать через торрент бесплатно
  • Хорошая жена / Правильная жена / The Good Wife (2015 WEB-DLRip (сезон 7, серии 1 из ) NewStudio (обновляемая) скачать через торрент бесплатно
  • Николай Богданов | Хорошая пословица [Рассказы] (1984) [FB2]
  • VA - Хорошая Музыка на Все Времена (2016) [MP3|320 Kbps] <Pop, Rock>
  • Нина Гернет | Хорошая вода (1961) [PDF, DJVU]


    • Комментарии (0):

      Информация

      Информация

        Посетители, находящиеся в группе Гости, не могут оставлять комментарии в данной новости.

        ↓ Меню




        ↓ Опрос

        Вы добавили сайт в закладки?
        Да
        Нет


        Top 10 за месяц (Фильмы)