.
Авторизация | Регистрация
Хочешь лучшие торренты? Добавь свой email!
Добавить

Торрент скачать бесплатно

» » Подальше от тебя / In Her Shoes (2005) BDRip [H.264 / 1080p-LQ] торрент скачать бесплатно




    Подальше от тебя / In Her Shoes (2005) BDRip [H.264 / 1080p-LQ] торрент скачать бесплатно

    Опубликовал: Админ | Дата: 9-10-2017, 05:00 | Просмотров: 0

    Производство: США, Германия, Великобритания/Fox 2000 Pictures, Scott Free Productions, Deuce Three Productions
    Жанр: Драма, Мелодрама, Комедия
    Режиссер: Кёртис Хэнсон

    Актеры
    Кэмерон Диаз, Тони Коллетт, Марк Фойерстин, Ширли МакЛейн, Ричард Бёрджи, Энсон Маунт, Кэндис Аззара, Брук Смит, Джон Мастранджело ст., Эмилио Мигнуччи

    Описание

    Безответственная и легкомысленная Мэгги Феллер поселяется у своей старшей сестры Роуз, которая работает адвокатом и придерживается во всем строгих правил. Неприятности начинаются с того, что Мэгги затаскивает к себе в постель бойфренда Роуз.

    Возраст: 16+ (зрителям, достигшим 16 лет)
    Рейтинг MPAA: PG-13 (детям до 13 лет просмотр нежелателен)
    Релиз от: SanLex
    Продолжительность: 02: 10: 33
    Качество видео: BDRip (1080p-LQ)
    Перевод: Дублированный (BD CEE)
    Субтитры: Русские, английские
    Видео: AVC/H.264, 1980x816 (2.35: 1), ~4322 kbps
    Аудио: AC3, 6 ch, 448 Kbps - Русский

    General
    Unique ID : 204620516240552454757524194047138280754 (0x99F07A5AB168ED549609A079D7813532)
    Format : Matroska
    Format version : Version 2
    File size : 4.37 GiB
    Duration : 2 h 10 min
    Overall bit rate : 4 793 kb/s
    Encoded date : UTC 2017-10-08 05: 47: 45
    Writing application : mkvmerge v7.6.0 (\\'Garden of Dreams\\') 32bit built on Feb 11 2015 00: 18: 47
    Writing library : libebml v1.3.1 + libmatroska v1.4.2
    Video
    ID : 1
    Format : AVC
    Format/Info : Advanced Video Codec
    Format profile : High@L4.1
    Format settings : CABAC/4 Ref Frames
    Format settings, CABAC : Yes
    Format settings, RefFrames : 4 frames
    Codec ID : V_MPEG4/ISO/AVC
    Duration : 2 h 10 min
    Bit rate : 4 322 kb/s
    Width : 1 920 pixels
    Height : 816 pixels
    Display aspect ratio : 2.35: 1
    Frame rate mode : Constant
    Frame rate : 23.976 (24000/1001) FPS
    Color space : YUV
    Chroma subsampling : 4: 2: 0
    Bit depth : 8 bits
    Scan type : Progressive
    Bits/(Pixel*Frame) : 0.115
    Stream size : 3.87 GiB (89%)
    Title : Подальше от тебя/In Her Shoes (2005)
    Writing library : x264 core 144 r2525 40bb568
    Encoding settings : cabac=1/ref=4/deblock=1: -1: -1/analyse=0x3: 0x113/me=umh/subme=10/psy=1/psy_rd=1.00: 0.00/mixed_ref=1/me_range=32/chroma_me=1/trellis=2/8x8dct=1/cqm=0/deadzone=21, 11/fast_pskip=0/chroma_qp_offset=-2/threads=6/lookahead_threads=1/sliced_threads=0/nr=0/decimate=1/interlaced=0/bluray_compat=0/constrained_intra=0/bframes=8/b_pyramid=2/b_adapt=2/b_bias=0/direct=3/weightb=1/open_gop=0/weightp=2/keyint=240/keyint_min=24/scenecut=40/intra_refresh=0/rc_lookahead=60/rc=2pass/mbtree=0/bitrate=4322/ratetol=1.0/qcomp=0.60/qpmin=0/qpmax=69/qpstep=4/cplxblur=20.0/qblur=0.5/vbv_maxrate=14000/vbv_bufsize=14000/nal_hrd=none/filler=0/ip_ratio=1.40/pb_ratio=1.30/aq=2: 1.00
    Language : English
    Default : Yes
    Forced : No
    Audio
    ID : 2
    Format : AC-3
    Format/Info : Audio Coding 3
    Format settings, Endianness : Big
    Codec ID : A_AC3
    Duration : 2 h 10 min
    Bit rate mode : Constant
    Bit rate : 448 kb/s
    Channel(s) : 6 channels
    Channel positions : Front: L C R, Side: L R, LFE
    Sampling rate : 48.0 kHz
    Frame rate : 31.250 FPS (1536 SPF)
    Bit depth : 16 bits
    Compression mode : Lossy
    Stream size : 418 MiB (9%)
    Language : Russian
    Service kind : Complete Main
    Default : Yes
    Forced : No
    Text #1
    ID : 3
    Format : PGS
    Muxing mode : zlib
    Codec ID : S_HDMV/PGS
    Codec ID/Info : Picture based subtitle format used on BDs/HD-DVDs
    Language : Russian
    Default : No
    Forced : No
    Text #2
    ID : 4
    Format : PGS
    Muxing mode : zlib
    Codec ID : S_HDMV/PGS
    Codec ID/Info : Picture based subtitle format used on BDs/HD-DVDs
    Language : English
    Default : No
    Forced : No

    Скриншоты для ознакомления



    Все одноименные релизы Подальше от тебя/In Her Shoes (2005) на NNM-CLUB
    Время раздачи: (до появления первых 3-5 скачавших)
    .dlother {background: url(\\'http://assets.nnm-club.ws/forum/images/dlother.png\\');width: 200px;height: 50px;overflow: hidden;margin: 0;-webkit-border-radius: 5px;-moz-border-radius: 5px;border-radius: 5px} .dlother a, .dlother a: hover {color: rgba(255, 255, 255, 0.6);font-size: 18px;font-family: Arial;display: block;padding: 14px;text-decoration: none;text-align: left;font-weight: normal;margin: 0} .dlother a span {color: #fff}
    NNM-Club.name_Podal\\'she ot tebya - In Her Shoes (2005) drama, melodrama, komediya.mkv.torrent
    Торрент: Зарегистрирован
    Подписаться на изменения
    Скачать
    22, 1 KB

    Примагнититься
    Зарегистрирован: 08 Окт 2017 16: 21: 38
    Размер: 4, 37 GB (Вам доступно: 50, 37 TB)
    Рейтинг: (Голосов: 7 )Супер Хорошо Средне Так себе Убил время
    Поблагодарили: 60 Спасибо (список )
    Проверка: Оформление проверено модератором 08 Окт 2017 16: 31: 08
    Как cкачать · Как раздать · Правильно оформить · Поднять ратио!

    _________________
    Развлекайся, но не забывайся!
    Вернуться к началу
    Посмотреть профильОтправить личное сообщение
    Woodworker
    Стаж: 1 год 2 мес.
    Сообщений: 331
    Ratio: 877, 607
    Поблагодарили: 29503
    100%
    russia.gif
    Новое сообщение08 Окт 2017 12: 25: 40 Заголовок сообщения:
    Ответить с цитатой

    Вот и правильно. Лучше одна аудиодорожка и больший битрейт видео.

    _________________
    Вернуться к началу
    Посмотреть профильОтправить личное сообщениеНайти релизы +1
    Нравится!(1)
    SanLex®
    Стаж: 2 года 11 мес.
    Сообщений: 630
    Ratio: 36, 083
    Поблагодарили: 24398
    100%
    Новое сообщение08 Окт 2017 12: 29: 04 Заголовок сообщения:
    Ответить с цитатой

    Всем приятного просмотра! =)



    Онлайн видео Подальше от тебя



    Подальше от тебя/In Her Shoes (2005) BDRip [H.264/1080p-LQ]
    загрузка...
    Рейтинг →
     (голосов: 1, оценка 4/5, голосовать можно 1 раз )

    Другие торренты по теме:

  • Подальше от тебя / In Her Shoes (2005) HDTVRip [720p]
  • Подальше от тебя / In Her Shoes (2005) BDRip [1080p] скачать через торрент бесплатно
  • Подальше от тебя / In Her Shoes (2005) BDRemux [1080p] скачать через торрент бесплатно


    • Комментарии (0):

      Информация

      Информация

        Посетители, находящиеся в группе Гости, не могут оставлять комментарии в данной новости.

        ↓ Меню




        ↓ Опрос

        Вы добавили сайт в закладки?
        Да
        Нет


        Top 10 за месяц (Фильмы)