.
Авторизация | Регистрация
Хочешь лучшие торренты? Добавь свой email!
Добавить

Торрент скачать бесплатно

» » Считая ворон / Наркокиллер / Small Time (1996) TVRip [AVO] торрент скачать бесплатно




    Считая ворон / Наркокиллер / Small Time (1996) TVRip [AVO] торрент скачать бесплатно

    Опубликовал: Админ | Дата: 9-10-2017, 05:00 | Просмотров: 0

    Производство: США
    Жанр: Криминал, Комедия
    Режиссер: Джеффри Рейнер

    Актеры
    Гленн Пламмер, Патрик Купо, Эрни Рейес мл., Дэррен МакГэвин, Трэйси Росс, Helana May Lim, Марибель, Саджино Грант, Джеймс Руссо, Рей Дон Чонг, Джефф Фэйи

    Описание

    Есть три парня. Они ждут. Как вы понимаете, поскольку это криминальная комедия, парни эти — те еще ..., а ожидание должно превратиться для них в настоящее испытание. Они будут жрать чипсы, материться на все вокруг, ругаться между собой, но и без приключений не обойдется. Секс, наркотики и рок-н-ролл. Все включено. Ну, не думаю, что в этом фильме подразумевался какой-то смысл, но смотреть и наслаждаться вполне себе можно. Если бы в титрах было указано имя Квентина Т., всем все было бы ясно, и все фанаты мастера стали бы нахваливать его творение, может быть, не самое лучшее, но все же достойное внимания. Поскольку имени этого в титрах нет, фанаты автора Бешеных псов будут ругать Джеффри Райнера за то, что он слизал стилистику их кумира, ну, а остальные могут просто посмотреть хороший фильм.

    Рейтинг MPAA: R (лицам до 17 лет обязательно присутствие взрослого)
    Продолжительность: 01: 33: 06
    Качество видео: TVRip
    Перевод: Авторский x2
    Субтитры: отсутствуют
    Видео: Xvid, 640х480, ~1858 Kbps
    Аудио 1: AC3, 2 ch, 192 Kbps - Русский (Авторский Ю.Сербин)
    Аудио 2: AC3, 2 ch, 192 Kbps - Русский (Авторский А. Дольский)

    General
    Complete name : D: \Считая ворон - Small Time by ale_x2008.avi
    Format : AVI
    Format/Info : Audio Video Interleave
    File size : 1.47 GiB
    Duration : 1h 33mn
    Overall bit rate : 2 256 Kbps
    Movie name : Считая ворон - Small Time by ale_x2008
    Director : by ale_x2008
    Writing application : VirtualDubMod 1.5.10.2 (build 2540/release)
    Copyright : Edich2
    Comment : .org
    Video
    ID : 0
    Format : MPEG-4 Visual
    Format profile : Advanced Simple@L5
    Format settings, BVOP : 2
    Format settings, QPel : No
    Format settings, GMC : No warppoints
    Format settings, Matrix : Custom
    Codec ID : XVID
    Codec ID/Hint : XviD
    Duration : 1h 33mn
    Bit rate : 1 858 Kbps
    Width : 640 pixels
    Height : 480 pixels
    Display aspect ratio : 4: 3
    Frame rate : 23.976 fps
    Color space : YUV
    Chroma subsampling : 4: 2: 0
    Bit depth : 8 bits
    Scan type : Progressive
    Compression mode : Lossy
    Bits/(Pixel*Frame) : 0.252
    Stream size : 1.21 GiB (82%)
    Writing library : XviD 73
    Audio #1
    ID : 1
    Format : AC-3
    Format/Info : Audio Coding 3
    Mode extension : CM (complete main)
    Format settings, Endianness : Big
    Codec ID : 2000
    Duration : 1h 33mn
    Bit rate mode : Constant
    Bit rate : 192 Kbps
    Channel count : 2 channels
    Channel positions : Front: L R
    Sampling rate : 48.0 KHz
    Bit depth : 16 bits
    Compression mode : Lossy
    Stream size : 128 MiB (9%)
    Alignment : Split accross interleaves
    Interleave, duration : 42 ms (1.00 video frame)
    Interleave, preload duration : 500 ms
    Audio #2
    ID : 2
    Format : AC-3
    Format/Info : Audio Coding 3
    Mode extension : CM (complete main)
    Format settings, Endianness : Big
    Codec ID : 2000
    Duration : 1h 33mn
    Bit rate mode : Constant
    Bit rate : 192 Kbps
    Channel count : 2 channels
    Channel positions : Front: L R
    Sampling rate : 48.0 KHz
    Bit depth : 16 bits
    Compression mode : Lossy
    Stream size : 128 MiB (9%)
    Alignment : Split accross interleaves
    Interleave, duration : 42 ms (1.00 video frame)
    Interleave, preload duration : 500 ms

    Скриншоты для ознакомления



    Все одноименные релизы в Клубе
    Время раздачи: 24/7 (круглосуточно) (до появления первых 3-5 скачавших)

    Онлайн видео Считая ворон



    Считая ворон/Наркокиллер/Small Time (1996) TVRip [AVO]
    загрузка...
    Рейтинг →
     (голосов: 1, оценка 4/5, голосовать можно 1 раз )

    Другие торренты по теме:

  • Трое в лодке, не считая собаки (1979) BDRemux [H.264 / 1080p] [16:9] скачать через торрент бесплатно
  • Р.Н. Щербаков, Л.Ф. Пичурин | Трое в одной каюте, ни считая математики (1975) [DJVU]
  • Трое в лифте, не считая собаки (2017) WEBRip (серии 1-2 из 2)
  • Трое в лифте, не считая собаки (2017) WEB-DL [H.264 / 1080p-LQ] (серии 1-2 из 2)


    • Комментарии (0):

      Информация

      Информация

        Посетители, находящиеся в группе Гости, не могут оставлять комментарии в данной новости.

        ↓ Меню




        ↓ Опрос

        Вы добавили сайт в закладки?
        Да
        Нет


        Top 10 за месяц (Фильмы)