.
Авторизация | Регистрация
Хочешь лучшие торренты? Добавь свой email!
Добавить

Торрент скачать бесплатно

» » Вурдалаки (2016) BDRip [H.264] торрент скачать бесплатно




    Вурдалаки (2016) BDRip [H.264] торрент скачать бесплатно

    Опубликовал: Админ | Дата: 9-10-2017, 05:00 | Просмотров: 0

    Производство: Россия
    Жанр: Триллер, Фэнтези
    Режиссер: Сергей Гинзбург
    Продюсер: Екатерина Гордецкая, Андрей Радько

    Актеры
    Михаил Пореченков, Константин Крюков, Аглая Шиловская, Андрей Руденский, Михаил Жигалов, Игорь Хрипунов, Анатолий Гущин, Константин Милованов, Анна Арланова, Юлия Ауг

    Описание

    Россия, 18 век. На краю Руси, в Карпатских горах, стоит Спасский монастырь, куда был сослан духовник императрицы Елизаветы монах Лавр. Какие тайны он унес с собой из столичного Петербурга, никто не ведал. Да и край, в который он был сослан, издревле считался неспокойным, о нем слагали легенды и рассказывали их только шепотом. Говорили мол, что в тех краях живет нечистая сила, оставшаяся там еще со времен набегов турецких...
    Спустя годы за Лавром из Петербурга прибывает Андрей, крестник самой императрицы Елизаветы. В Карпатах Андрей сталкивается со странным, пугающим и необычным, что не в состоянии объяснить его рациональный разум. А еще он встречает настоящую любовь, ради которой вступает в схватку со сверхъестественным злом.

    Возраст: 12+ (зрителям, достигшим 12 лет)
    Премьера (РФ): 22 февраля 2017, Централ Партнершип
    Продолжительность: 01: 21: 54
    Качество видео: BDRip
    Перевод: Не требуется (Русский, Лицензия)
    Видео: AVC/H.264, 1024x428, ~1970 kbps
    Аудио: AC3, 6 ch, 448 Kbps

    Vurdalaki.2017.BDRip.AVC.mkv
    Формат : Matroska
    Версия формата : Version 2
    Размер файла : 1, 38 Гбайт
    Продолжительность : 1 ч. 21 м.
    Общий поток : 2417 Кбит/сек
    Название фильма : Вурдалаки (2017) from ExKinoRay
    Дата кодирования : UTC 2017-10-07 13: 00: 05
    Программа кодирования : mkvmerge v5.6.0 (\\'Kenya Kane\\') built on May 27 2012 16: 44: 04
    Библиотека кодирования : libebml v1.2.3 + libmatroska v1.3.0
    Видео
    Идентификатор : 1
    Формат : AVC
    Формат/Информация : Advanced Video Codec
    Профиль формата : High@L4.1
    Настройки формата : CABAC/12 Ref Frames
    Параметр CABAC формата : Да
    Параметр RefFrames формата : 12 кадров
    Идентификатор кодека : V_MPEG4/ISO/AVC
    Продолжительность : 1 ч. 21 м.
    Битрейт : 1970 Кбит/сек
    Ширина : 1024 пикселя
    Высота : 428 пикселей
    Соотношение сторон : 2, 40: 1
    Режим частоты кадров : Постоянный
    Частота кадров : 23, 976 (24000/1001) кадра/сек
    Цветовое пространство : YUV
    Субдискретизация насыщенности : 4: 2: 0
    Битовая глубина : 8 бит
    Тип развёртки : Прогрессивная
    Бит/(Пиксели*Кадры) : 0.187
    Размер потока : 1, 10 Гбайт (79%)
    Заголовок : Enigma
    Библиотека кодирования : x264 core 152 r2851 ba24899
    Настройки программы : cabac=1/ref=12/deblock=1: -2: -2/analyse=0x3: 0x113/me=umh/subme=10/psy=1/psy_rd=1.00: 0.05/mixed_ref=1/me_range=32/chroma_me=1/trellis=2/8x8dct=1/cqm=0/deadzone=21, 11/fast_pskip=1/chroma_qp_offset=-3/threads=12/lookahead_threads=3/sliced_threads=0/nr=0/decimate=0/interlaced=0/bluray_compat=0/constrained_intra=0/bframes=11/b_pyramid=2/b_adapt=2/b_bias=0/direct=3/weightb=1/open_gop=0/weightp=2/keyint=240/keyint_min=23/scenecut=40/intra_refresh=0/rc_lookahead=40/rc=2pass/mbtree=0/bitrate=1970/ratetol=1.0/qcomp=0.65/qpmin=0/qpmax=51/qpstep=4/cplxblur=20.0/qblur=0.5/vbv_maxrate=50000/vbv_bufsize=62500/nal_hrd=none/filler=0/ip_ratio=1.40/pb_ratio=1.30/aq=3: 0.90
    Язык : English
    Default : Да
    Forced : Нет
    Цветовой диапазон : Limited
    Основные цвета : BT.709
    Характеристики трансфера : BT.709
    Коэффициенты матрицы : BT.709
    Аудио
    Идентификатор : 2
    Формат : AC-3
    Формат/Информация : Audio Coding 3
    Параметр Endianness формата : Big
    Идентификатор кодека : A_AC3
    Продолжительность : 1 ч. 21 м.
    Вид битрейта : Постоянный
    Битрейт : 448 Кбит/сек
    Каналы : 6 каналов
    Расположение каналов : Front: L C R, Side: L R, LFE
    Частота : 48, 0 КГц
    Частота кадров : 31, 250 кадров/сек (1536 SPF)
    Битовая глубина : 16 бит
    Метод сжатия : С потерями
    Размер потока : 262 Мбайт (19%)
    Язык : Russian
    ServiceKind/String : Complete Main
    Default : Да
    Forced : Нет
    Меню
    00: 00: 00.000 : : Chapter 01
    00: 02: 52.088 : : Chapter 02
    00: 07: 49.469 : : Chapter 03
    00: 14: 20.401 : : Chapter 04
    00: 23: 33.412 : : Chapter 05
    00: 32: 06.382 : : Chapter 06
    00: 39: 46.384 : : Chapter 07
    00: 44: 49.311 : : Chapter 08
    00: 50: 24.604 : : Chapter 09
    01: 00: 24.829 : : Chapter 10
    01: 10: 17.213 : : Chapter 11
    01: 19: 49.367 : : Chapter 12
    01: 21: 54.534 : : Chapter 13

    Скриншоты для ознакомления



    Все одноименные релизы в Клубе
    Время раздачи: 24/7 (до появления первых 3-5 скачавших)

    Онлайн видео Его звали Роберт (1967) HDTV [H.264



    Вурдалаки (2016) BDRip [H.264]
    загрузка...
    Рейтинг →
     (голосов: 1, оценка 5/5, голосовать можно 1 раз )

    Другие торренты по теме:

  • Вурдалаки (2016) BDRip [H.264 / 720p]
  • Вурдалаки (2016) BDRip
  • Вурдалаки (2016) BDRip [H.264 / 1080p-LQ]
  • Вурдалаки (2016) BDRip 3D [H.264 / 1080p] [Вертикальная анаморфная стереопара]


    • Комментарии (0):

      Информация

      Информация

        Посетители, находящиеся в группе Гости, не могут оставлять комментарии в данной новости.

        ↓ Меню




        ↓ Опрос

        Вы добавили сайт в закладки?
        Да
        Нет


        Top 10 за месяц (Фильмы)