.
Авторизация | Регистрация
Хочешь лучшие торренты? Добавь свой email!
Добавить

Торрент скачать бесплатно

» » Его звали Роберт (1967) HDTV [H.264 / 1080i-LQ] торрент скачать бесплатно




    Его звали Роберт (1967) HDTV [H.264 / 1080i-LQ] торрент скачать бесплатно

    Опубликовал: Админ | Дата: 9-10-2017, 05:00 | Просмотров: 1

    Производство: СССР/Ленфильм
    Жанр: Фантастика, Комедия
    Режиссер: Илья Ольшвангер

    Актеры
    Олег Стриженов, Марианна Вертинская, Владимир Поболь, Михаил Пуговкин, Нина Мамаева, Юрий Толубеев, Марсель Марсо, Алексей Драницын, Николай Макеев, Игорь Ефимов, Пантелеймон Крымов

    Описание

    Молодой ученый создает биохимическую модель человека. Роботу РБ-235, точной копии своего создателя, дали возможность выйти за пределы института и пожить по-человечески.

    Возраст: 12+ (зрителям, достигшим 12 лет)
    Продолжительность: 01: 19: 08
    Качество видео: HDTV 1080i
    Видео: AVC/H.264, 1920x1080, ~8865 Kbps
    Аудио #1: MP2, 48 kHz, 2 ch, 224 kbps
    Аудио #2: АС-3, 48 kHz, 6 ch, 384 kbps

    Общее
    Идентификатор : 16 (0x10)
    Полное имя : Ego zvali Robert_HD.ts
    Формат : MPEG-TS
    Размер файла : 5, 52 Гбайт
    Продолжительность : 1 ч. 19 м.
    Режим общего битрейта : Переменный
    Общий поток : 9972 Кбит/сек
    Видео
    Идентификатор : 1902 (0x76E)
    Идентификатор меню : 92 (0x5C)
    Формат : AVC
    Формат/Информация : Advanced Video Codec
    Профиль формата : High@L4
    Настройки формата : CABAC/3 Ref Frames
    Параметр CABAC формата : Да
    Параметр RefFrames формата : 3 кадра
    Параметр GOP формата : M=4, N=32
    Идентификатор кодека : 27
    Продолжительность : 1 ч. 19 м.
    Битрейт : 8865 Кбит/сек
    Ширина : 1920 пикселей
    Высота : 1080 пикселей
    Соотношение сторон : 16: 9
    Частота кадров : 25, 000 кадров/сек
    Стандарт вещания : PAL
    Цветовое пространство : YUV
    Субдискретизация насыщенности : 4: 2: 0
    Битовая глубина : 8 бит
    Тип развёртки : Чересстрочная
    Метод сохранения типа развёртки : Раздельные поля
    Порядок развёртки : Верхнее поле первое
    Бит/(Пиксели*Кадры) : 0.171
    Размер потока : 4, 91 Гбайт (89%)
    Цветовой диапазон : Limited
    Основные цвета : BT.709
    Характеристики трансфера : BT.709
    Коэффициенты матрицы : BT.709
    Аудио #1
    Идентификатор : 2902 (0xB56)
    Идентификатор меню : 92 (0x5C)
    Формат : MPEG Audio
    Версия формата : Version 1
    Профиль формата : Layer 2
    Идентификатор кодека : 4
    Продолжительность : 1 ч. 19 м.
    Вид битрейта : Постоянный
    Битрейт : 224 Кбит/сек
    Каналы : 2 канала
    Частота : 48, 0 КГц
    Метод сжатия : С потерями
    Задержка видео : 141 мс.
    Размер потока : 127 Мбайт (2%)
    Язык : std
    Язык, дополнительно : Clean effects
    Аудио #2
    Идентификатор : 3902 (0xF3E)
    Идентификатор меню : 92 (0x5C)
    Формат : AC-3
    Формат/Информация : Audio Coding 3
    Параметр Endianness формата : Big
    Идентификатор кодека : 6
    Продолжительность : 1 ч. 19 м.
    Вид битрейта : Постоянный
    Битрейт : 384 Кбит/сек
    Каналы : 6 каналов
    Расположение каналов : Front: L C R, Side: L R, LFE
    Частота : 48, 0 КГц
    Частота кадров : 31, 250 кадров/сек (1536 SPF)
    Битовая глубина : 16 бит
    Метод сжатия : С потерями
    Задержка видео : 144 мс.
    Размер потока : 218 Мбайт (4%)
    Язык : std
    Язык, дополнительно : Clean effects
    ServiceKind/String : Complete Main
    Прочее #1
    Идентификатор : 33 (0x21)-100
    Идентификатор меню : 92 (0x5C)
    Формат : Teletext
    Прочее #2
    Идентификатор : 33 (0x21)-888
    Идентификатор меню : 92 (0x5C)
    Формат : Teletext
    Язык, дополнительно : Additional information page

    Скриншоты для ознакомления



    Все одноименные релизы в Клубе
    Время раздачи: Пн-Пт с 18: 00 до 22: 00 (до появления первых 3-5 скачавших)

    Онлайн видео Его звали Роберт (1967) HDTV [H.264



    Его звали Роберт (1967) HDTV [H.264/1080i-LQ]
    загрузка...
    Рейтинг →
     (голосов: 1, оценка 5/5, голосовать можно 1 раз )

    Другие торренты по теме:

  • Его звали ДЕД (2011) DVDRip скачать через торрент бесплатно
  • Сергей Дышев | Ее звали Атаманша (2016) [FB2] скачать через торрент бесплатно
  • Её звали Муму (2016) SATRip
  • Её звали Муму (2016) WEB-DL [H.264 / 1080p-LQ]
  • Её звали Муму (2016) WEB-DLRip
  • Мальчишку звали Капитаном (1973) TVRip
  • Её звали Муму (2016) WEB-DL [1080p] ATV
  • Её звали Муму (2016) WEB-DLRip [576p] iPad


    • Комментарии (0):

      Информация

      Информация

        Посетители, находящиеся в группе Гости, не могут оставлять комментарии в данной новости.

        ↓ Меню




        ↓ Опрос

        Вы добавили сайт в закладки?
        Да
        Нет


        Top 10 за месяц (Фильмы)