.
Авторизация | Регистрация
Хочешь лучшие торренты? Добавь свой email!
Добавить

Торрент скачать бесплатно

» » Случай с Полыниным (1970) HDTV [H.264 / 1080i-LQ] торрент скачать бесплатно




    Случай с Полыниным (1970) HDTV [H.264 / 1080i-LQ] торрент скачать бесплатно

    Опубликовал: Админ | Дата: 9-10-2017, 05:00 | Просмотров: 0

    Производство: СССР/Мосфильм
    Жанр: Драма, Военный
    Режиссер: Алексей Сахаров

    Актеры
    Анастасия Вертинская, Олег Ефремов, Олег Табаков, Георгий Бурков, Белла Манякина, Нонна Мордюкова, Александр Ханов, Лев Дуров, Юрий Прокопович, Владимир Кашпур

    Описание

    В первые дни войны молодая московская актриса Галина Прокофьева вместе с фронтовой актерской бригадой была направлена на Карельский фронт. Именно там впервые услышал ее песни командир авиационного полка Полынин. Вскоре она уехала, а Полынин продолжал воевать, думать о Галине и писать короткие письма женщине, на которой решил жениться…

    Возраст: 12+ (зрителям, достигшим 12 лет)
    Продолжительность: 01: 32: 24
    Качество видео: HDTV 1080i
    Видео: AVC/H.264, 1920x1080, ~10, 4 Мbps
    Аудио #1: MP2, 48 kHz, 2 ch, 224 kbps
    Аудио #2: АС-3, 48 kHz, 6 ch, 384 kbps

    Общее
    Идентификатор : 16 (0x10)
    Полное имя : Sluchay s Polyninym_HD.ts
    Формат : MPEG-TS
    Размер файла : 7, 51 Гбайт
    Продолжительность : 1 ч. 32 м.
    Режим общего битрейта : Переменный
    Общий поток : 11, 6 Мбит/сек
    Видео
    Идентификатор : 1902 (0x76E)
    Идентификатор меню : 92 (0x5C)
    Формат : AVC
    Формат/Информация : Advanced Video Codec
    Профиль формата : High@L4
    Настройки формата : CABAC/3 Ref Frames
    Параметр CABAC формата : Да
    Параметр RefFrames формата : 3 кадра
    Идентификатор кодека : 27
    Продолжительность : 1 ч. 32 м.
    Битрейт : 10, 4 Мбит/сек
    Ширина : 1920 пикселей
    Высота : 1080 пикселей
    Соотношение сторон : 16: 9
    Частота кадров : 25, 000 кадров/сек
    Стандарт вещания : PAL
    Цветовое пространство : YUV
    Субдискретизация насыщенности : 4: 2: 0
    Битовая глубина : 8 бит
    Тип развёртки : Чересстрочная
    Метод сохранения типа развёртки : Раздельные поля
    Порядок развёртки : Верхнее поле первое
    Бит/(Пиксели*Кадры) : 0.201
    Размер потока : 6, 74 Гбайт (90%)
    Цветовой диапазон : Limited
    Основные цвета : BT.709
    Характеристики трансфера : BT.709
    Коэффициенты матрицы : BT.709
    Аудио #1
    Идентификатор : 2902 (0xB56)
    Идентификатор меню : 92 (0x5C)
    Формат : MPEG Audio
    Версия формата : Version 1
    Профиль формата : Layer 2
    Идентификатор кодека : 4
    Продолжительность : 1 ч. 32 м.
    Вид битрейта : Постоянный
    Битрейт : 224 Кбит/сек
    Каналы : 2 канала
    Частота : 48, 0 КГц
    Метод сжатия : С потерями
    Задержка видео : 29 мс.
    Размер потока : 148 Мбайт (2%)
    Язык : std
    Язык, дополнительно : Clean effects
    Аудио #2
    Идентификатор : 3902 (0xF3E)
    Идентификатор меню : 92 (0x5C)
    Формат : AC-3
    Формат/Информация : Audio Coding 3
    Параметр Endianness формата : Big
    Идентификатор кодека : 6
    Продолжительность : 1 ч. 32 м.
    Вид битрейта : Постоянный
    Битрейт : 384 Кбит/сек
    Каналы : 6 каналов
    Расположение каналов : Front: L C R, Side: L R, LFE
    Частота : 48, 0 КГц
    Частота кадров : 31, 250 кадров/сек (1536 SPF)
    Битовая глубина : 16 бит
    Метод сжатия : С потерями
    Задержка видео : 144 мс.
    Размер потока : 254 Мбайт (3%)
    Язык : std
    Язык, дополнительно : Clean effects
    ServiceKind/String : Complete Main
    Прочее #1
    Идентификатор : 33 (0x21)-100
    Идентификатор меню : 92 (0x5C)
    Формат : Teletext
    Прочее #2
    Идентификатор : 33 (0x21)-888
    Идентификатор меню : 92 (0x5C)
    Формат : Teletext
    Язык, дополнительно : Additional information page

    Скриншоты для ознакомления



    Все одноименные релизы в Клубе
    Время раздачи: Пн-Пт с 18: 00 до 22: 00 (до появления первых 3-5 скачавших)

    Онлайн видео Случай с Полыниным (1970) HDTV [H.264



    Случай с Полыниным (1970) HDTV [H.264/1080i-LQ]
    загрузка...
    Рейтинг →
     (голосов: 1, оценка 5/5, голосовать можно 1 раз )

    Другие торренты по теме:

  • Тяжелый случай / Hard Luck (2006) BDRip [H.264] скачать через торрент бесплатно
  • Несчастный случай - Тоннель в конце света (2010) / 2012, МируМир / [FLAC|Lossless]<Rock>
  • Чарлз Диккенс | Превосходный случай (2015) [MP3] скачать через торрент бесплатно
  • Книжная серия | Счастливый случай [91 книга] (1996-2004) [FB2] скачать через торрент бесплатно
  • Несчастный случай - Легенды русского рока (2004) [FLAC|tracks+.cue]<Рок> скачать через торрент бесплатно
  • Андрей Ветер, Валерий Стрелецкий | Случай в Кропоткинском переулке. (2015) [MP3] скачать через торрент бесплатно
  • Эрих Фромм | Адольф Гитлер: клинический случай некрофилии (1992) [FB2] скачать через торрент бесплатно
  • Квартирник у Маргулиса - Несчастный Случай (2015) DVBRip скачать через торрент бесплатно


    • Комментарии (0):

      Информация

      Информация

        Посетители, находящиеся в группе Гости, не могут оставлять комментарии в данной новости.

        ↓ Меню




        ↓ Опрос

        Вы добавили сайт в закладки?
        Да
        Нет


        Top 10 за месяц (Фильмы)