.
Авторизация | Регистрация
Хочешь лучшие торренты? Добавь свой email!
Добавить

Торрент скачать бесплатно

» » 9 рота (2005) BDRip [H.265 / 1080p-LQ] [10-bit] торрент скачать бесплатно




    9 рота (2005) BDRip [H.265 / 1080p-LQ] [10-bit] торрент скачать бесплатно

    Опубликовал: Админ | Дата: 9-10-2017, 05:00 | Просмотров: 0

    Производство: Россия, Финляндия, Украина, Art Pictures Group, Канал 1+1, Finnish Film Foundation, MRP Matila Rohr Productions Oy, Продюсерская компания Слово, Канал СТС, Украинская Медийная Группа, Yleisradio
    Жанр: Боевик, Военный, Драма
    Режиссер: Фёдор Бондарчук

    Актеры
    Алексей Чадов, Константин Крюков, Иван Кокорин, Михаил Евланов, Иван Николаев, Михаил Пореченков, Фёдор Бондарчук, Дмитрий Мухамадеев, Ирина Рахманова, Алексей Кравченко, Александр Баширов, Михаил Ефремов, Станислав Говорухин, Андрей Краско, Александр Лыков, Алексей Серебряков, Денис Мошкин, Александр Кучеренко, Светлана Иванова, Артур Смольянинов, Артём Михалков, Сослан Фидаров, Амаду Мамадаков, Александр Шейн, Олесь Кацион, Карен Мартиросян, Марат Гудиев, Евгений Арутюнян

    Описание

    СССР. Конец восьмидесятых. Семеро 18-летних призывников, добровольно записавшиеся в афганскую команду, знакомятся на призывном пункте. После нескольких месяцев адской подготовки в учебке, ребята попадают в горнило афганской кампании - в знаменитую 9 роту 345-го парашютно-десантного полка, самую боеспособную, самую героическую. Вскоре 9 рота получает задание: занять высоту 3234 над дорогой и удерживать ее до прохождения колонны наших войск… Фильм основан на реальных событиях.

    Возраст: 16+ (зрителям, достигшим 16 лет)
    Релиз от: HANNIBAL
    Продолжительность: 02: 19: 13
    Качество видео: BDRip
    Видео: HEVC/H.265, 1920x772, ~5470 Kbps
    Аудио: AC3, 6 ch, 640 Kbps

    Общее
    Уникальный идентификатор : 218533911974676175347395408323726450049 (0xA46819B9F3061185A661E4D12CDE9D81)
    Полное имя : G: \HEVC\9 Rota (2005) BDRip 1080p GER Transfer HEVC 10bit.mkv
    Формат : Matroska
    Версия формата : Version 4/Version 2
    Размер файла : 5, 94 Гбайт
    Продолжительность : 2 ч. 19 м.
    Общий поток : 6107 Кбит/сек
    Название фильма : ВИДЕО-9.Rota.2005.BDRemux.(1080p).ExKinoRay
    Дата кодирования : UTC 2017-10-02 16: 27: 19
    Программа кодирования : mkvmerge v8.9.0 (\\'Father Daughter\\') 64bit
    Библиотека кодирования : libebml v1.3.3 + libmatroska v1.4.4
    Обложка : Yes
    Attachments : cover.jpg
    Видео
    Идентификатор : 1
    Формат : HEVC
    Формат/Информация : High Efficiency Video Coding
    Профиль формата : Main 10@L4@Main
    Идентификатор кодека : V_MPEGH/ISO/HEVC
    Продолжительность : 2 ч. 19 м.
    Битрейт : 5470 Кбит/сек
    Ширина : 1920 пикселей
    Высота : 772 пикселя
    Соотношение сторон : 2, 487
    Режим частоты кадров : Постоянный
    Частота кадров : 23, 976 (24000/1001) кадра/сек
    Цветовое пространство : YUV
    Субдискретизация насыщенности : 4: 2: 0
    Битовая глубина : 10 бит
    Бит/(Пиксели*Кадры) : 0.154
    Размер потока : 5, 31 Гбайт (89%)
    Default : Да
    Forced : Нет
    Цветовой диапазон : Limited
    Основные цвета : BT.709
    Характеристики трансфера : BT.709
    Коэффициенты матрицы : BT.709
    Аудио
    Идентификатор : 2
    Формат : AC-3
    Формат/Информация : Audio Coding 3
    Параметр Endianness формата : Big
    Идентификатор кодека : A_AC3
    Продолжительность : 2 ч. 19 м.
    Вид битрейта : Постоянный
    Битрейт : 640 Кбит/сек
    Каналы : 6 каналов
    Расположение каналов : Front: L C R, Side: L R, LFE
    Частота : 48, 0 КГц
    Частота кадров : 31, 250 кадров/сек (1536 SPF)
    Битовая глубина : 16 бит
    Метод сжатия : С потерями
    Размер потока : 637 Мбайт (10%)
    Язык : Russian
    ServiceKind/String : Complete Main
    Default : Да
    Forced : Нет
    Меню
    00: 00: 00.000 : en: Chapter 01
    00: 10: 04.395 : en: Chapter 02
    00: 26: 26.835 : en: Chapter 03
    00: 37: 27.578 : en: Chapter 04
    00: 46: 48.055 : en: Chapter 05
    00: 59: 00.495 : en: Chapter 06
    01: 11: 37.751 : en: Chapter 07
    01: 23: 07.983 : en: Chapter 08
    01: 37: 39.687 : en: Chapter 09
    01: 48: 14.321 : en: Chapter 10
    01: 55: 44.604 : en: Chapter 11
    02: 14: 44.910 : en: Chapter 12

    Скриншоты для ознакомления



    Все одноименные релизы в Клубе
    Время раздачи: 24/7 (круглосуточно) (до появления первых 3-5 скачавших)

    Онлайн видео 9 рота (2005) BDRip [H.265



    9 рота (2005) BDRip [H.265/1080p-LQ] [10-bit]
    загрузка...
    Рейтинг →
     (голосов: 1, оценка 4/5, голосовать можно 1 раз )

    Другие торренты по теме:

  • Куда же делась седьмая рота / Now Where Did the Seventh Company Get to / Mais ou est donc passee la 7eme compagnie (1973) BDRip [720p] скачать через торрент бесплатно
  • Забытая рота / The Lost Battalion (2001) BDRip [H.264 / 720p] скачать через торрент бесплатно
  • Куда же делась седьмая рота / Mais ou est donc passee la 7eme compagnie (1973) BDRip [H.264]


    • Комментарии (0):

      Информация

      Информация

        Посетители, находящиеся в группе Гости, не могут оставлять комментарии в данной новости.

        ↓ Меню




        ↓ Опрос

        Вы добавили сайт в закладки?
        Да
        Нет


        Top 10 за месяц (Фильмы)