.
Авторизация | Регистрация
Хочешь лучшие торренты? Добавь свой email!
Добавить

Торрент скачать бесплатно

» » Малые часы / The Little Hours (2017) BDRemux [H.264 / 1080p] [EN / EN Sub] торрент скачать бесплатно




    Малые часы / The Little Hours (2017) BDRemux [H.264 / 1080p] [EN / EN Sub] торрент скачать бесплатно

    Опубликовал: Админ | Дата: 9-10-2017, 05:00 | Просмотров: 0

    Производство: Канада, США/Destro Films, Bow and Arrow Entertainment, Productivity Media, Concourse Media, StarStream Media, Dublab Media, Exhibit, Foton Pictures
    Жанр: комедия
    Режиссер: Джефф Бэйна

    Актеры
    Элисон Бри, Дэйв Франко, Кейт Микуччи, Обри Плаза, Джон Си Райли, Молли Шеннон, Фред Армисен, Джемима Кёрк, Ник Офферман, Джонатан Габрус, Адам Палли, Лорен Уидман

    Описание

    Молодой красавец-слуга Массето сбегает от своего разозленного хозяина в монастырь под видом глухонемого наемника. Попавший в общество средневековых монахинь беглец надеется, что нашел себе тихое пристанище. Однако на самом деле он попал в обитель подавленных страстей, которые с его появлением прорываются наружу.


    Продолжительность: 01: 29: 14
    Качество видео: BDRemux
    Перевод: Отсутствует
    Язык озвучки: Английский
    Субтитры: английские
    Видео: AVC, 1920x1080 (16: 9), 26913 kbps, 23.976 fps, 0.541 bpp
    Аудио: DTS-HD/5.1/48 kHz/2721 kbps/24 bit (Core: 5.1/48 kHz/1509 kbps/24 bit)
    Код: выделить все
    General
    Unique ID The.Little.Hours.2017.REMUX.BluRay.1080p.AVC.DTS-HD.MA5.1-iFT\The.Little.Hours.2017.REMUX.BluRay.1080p.AVC.DTS-HD.MA5.1-iFT.mkv
    Format : Matroska
    Format version : Version 4/Version 2
    File size : 18.5 GiB
    Duration : 1 h 29 min
    Overall bit rate mode : Variable
    Overall bit rate : 29.6 Mb/s
    Encoded date : UTC 2017-10-07 22:53:53
    Writing application : mkvmerge v9.9.0 (\\'Pick Up\\') 64bit
    Writing library : libebml v1.3.4 + libmatroska v1.4.5
    Video
    ID : 1
    Format : AVC
    Format/Info : Advanced Video Codec
    Format profile :High@L4.1
    Format settings, CABAC : Yes
    Format settings, ReFrames : 2 frames
    Codec ID : V_MPEG4/ISO/AVC
    Duration : 1 h 29 min
    Bit rate mode : Variable
    Bit rate : 26.9 Mb/s
    Maximum bit rate : 38.2 Mb/s
    Width : 1 920 pixels
    Height : 1 080 pixels
    Display aspect ratio : 16:9
    Frame rate mode : Constant
    Frame rate : 23.976 (24000/1001) FPS
    Color space : YUV
    Chroma subsampling : 4:2:0
    Bit depth : 8 bits
    Scan type : Progressive
    Bits/(Pixel*Frame) : 0.541
    Stream size : 16.8 GiB (91%)
    Default : No
    Forced : No
    Audio
    ID : 2
    Format : DTS
    Format/Info : Digital Theater Systems
    Format profile : MA/Core
    Mode : 16
    Format settings, Endianness : Big
    Codec ID : A_DTS
    Duration : 1 h 29 min
    Bit rate mode : Variable/Constant
    Bit rate : 2 721 kb/s/1 509 kb/s
    Channel(s) : 6 channels
    Channel positions : Front: L C R, Side: L R, LFE
    Sampling rate : 48.0 kHz
    Frame rate : 93.750 FPS (512 spf)
    Bit depth : 24 bits
    Compression mode : Lossless/Lossy
    Stream size : 1.70 GiB (9%)
    Default : Yes
    Forced : No
    Text
    ID : 3
    Format : PGS
    Muxing mode : zlib
    Codec ID : S_HDMV/PGS
    Codec ID/Info : Picture based subtitle format used on BDs/HD-DVDs
    Duration : 1 h 24 min
    Bit rate : 10.3 kb/s
    Count of elements : 3013
    Stream size : 6.28 MiB (0%)
    Language : English
    Default : Yes
    Forced : No
    Menu
    00:00:00.000 : en:00:00:00.000
    00:10:00.600 : en:00:10:00.600
    00:20:01.200 : en:00:20:01.200
    00:30:01.800 : en:00:30:01.800
    00:40:02.400 : en:00:40:02.400
    00:50:03.000 : en:00:50:03.000
    01:00:03.600 : en:01:00:03.600
    01:10:04.200 : en:01:10:04.200
    01:20:04.800 : en:01:20:04.800
    01:29:13.348 : en:01:29:13.348


    Скриншоты для ознакомления



    Все одноименные релизы в Клубе
    Время раздачи: с 13: 00 до 23: 00

    Онлайн видео Малые часы



    Малые часы/The Little Hours (2017) BDRemux [H.264/1080p] [EN/EN Sub]
    загрузка...
    Рейтинг →
     (голосов: 1, оценка 4/5, голосовать можно 1 раз )

    Другие торренты по теме:

  • Малые часы / The Little Hours (2017) WEB-DLRip [MVO] [AD]
  • Малые часы / The Little Hours (2017) WEB-DLRip [H.264 / 720p-LQ] [MVO] [AD]


    • Комментарии (0):

      Информация

      Информация

        Посетители, находящиеся в группе Гости, не могут оставлять комментарии в данной новости.

        ↓ Меню




        ↓ Опрос

        Вы добавили сайт в закладки?
        Да
        Нет


        Top 10 за месяц (Фильмы)