.
Авторизация | Регистрация
Хочешь лучшие торренты? Добавь свой email!
Добавить

Торрент скачать бесплатно

» » Мозг Гиммлера зовется Гейдрихом / HHhH (2017) BDRip [H.264 / 1080p] [EN] торрент скачать бесплатно




    Мозг Гиммлера зовется Гейдрихом / HHhH (2017) BDRip [H.264 / 1080p] [EN] торрент скачать бесплатно

    Опубликовал: Админ | Дата: 9-10-2017, 05:00 | Просмотров: 0

    Производство: Франция, Echo Lake Entertainment, Cutting Edge Group, Légende Films
    Жанр: Боевик, Биография, Триллер
    Режиссер: Седрик Жименес
    Продюсер: Дэниэл Краун, Ален Голдман, Дэниэл Делюм, ...

    Актеры
    Розамунд Пайк, Миа Васиковска, Джек О’Коннелл, Джек Рейнор, Джейсон Кларк, Томас М. Райт, Энцо Чиленти, Джофф Белл, Ноа Джуп, Барри Атсма ...

    Описание

    Фильм расскажет о стремительном восхождении Рейнхарда Гейдриха — государственного и политического деятеля нацистской Германии, одного из инициаторов окончательного решения еврейского вопроса, который был убит Яном Кубишем и Йозефом Габчиком — чехословацкими диверсантами, агентами, специально подготовленными англичанами.

    Рейтинг MPAA: R (лицам до 17 лет обязательно присутствие взрослого)
    Премьера (мир): 25 мая 2017, ...
    Продолжительность: 01: 59: 54
    Качество видео: BDRip 1080p
    Перевод: Отсутствует
    Язык озвучки: Английский
    Субтитры: Отсутствуют
    Видео: AVC, 1920x808 (2.35: 1), 24.000 fps, 8 735 Kbps (0.235 bit/pixel)
    Аудио: DTS, 48.0 KHz, 6 ch, 1 510 Kbps, CBR (English)
    General
    Complete name : HHhH.2017.1080p.BluRay.x264.DTS-ULSHD.mkv
    Format : Matroska
    Format version : Version 4/Version 2
    File size : 8.58 GiB
    Duration : 1 h 59 min
    Overall bit rate : 10.2 Mb/s
    Encoded date : UTC 2017-10-08 02: 19: 11
    Writing application : mkvmerge v16.0.0 (\\'Protest\\') 64-bit
    Writing library : libebml v1.3.5 + libmatroska v1.4.8
    Video
    ID : 1
    Format : AVC
    Format/Info : Advanced Video Codec
    Format profile : High@L4.1
    Format settings : CABAC/5 Ref Frames
    Format settings, CABAC : Yes
    Format settings, RefFrames : 5 frames
    Codec ID : V_MPEG4/ISO/AVC
    Duration : 1 h 59 min
    Bit rate : 8 735 kb/s
    Width : 1 920 pixels
    Height : 808 pixels
    Display aspect ratio : 2.40: 1
    Frame rate mode : Constant
    Frame rate : 24.000 FPS
    Color space : YUV
    Chroma subsampling : 4: 2: 0
    Bit depth : 8 bits
    Scan type : Progressive
    Bits/(Pixel*Frame) : 0.235
    Stream size : 7.14 GiB (83%)
    Writing library : x264 core 152 r2851 ba24899
    Encoding settings : cabac=1/ref=5/deblock=1: 0: 0/analyse=0x3: 0x113/me=umh/subme=8/psy=1/psy_rd=1.00: 0.00/mixed_ref=1/me_range=16/chroma_me=1/trellis=1/8x8dct=1/cqm=0/deadzone=21, 11/fast_pskip=1/chroma_qp_offset=-2/threads=18/lookahead_threads=3/sliced_threads=0/nr=0/decimate=1/interlaced=0/bluray_compat=0/constrained_intra=0/bframes=3/b_pyramid=2/b_adapt=2/b_bias=0/direct=3/weightb=1/open_gop=0/weightp=2/keyint=240/keyint_min=24/scenecut=40/intra_refresh=0/rc_lookahead=50/rc=2pass/mbtree=1/bitrate=8735/ratetol=1.0/qcomp=0.60/qpmin=0/qpmax=69/qpstep=4/cplxblur=20.0/qblur=0.5/ip_ratio=1.40/aq=1: 1.00
    Language : English
    Default : Yes
    Forced : No
    Audio
    ID : 2
    Format : DTS
    Format/Info : Digital Theater Systems
    Mode : 16
    Format settings, Endianness : Big
    Codec ID : A_DTS
    Duration : 1 h 59 min
    Bit rate mode : Constant
    Bit rate : 1 509 kb/s
    Channel(s) : 6 channels
    Channel positions : Front: L C R, Side: L R, LFE
    Sampling rate : 48.0 kHz
    Frame rate : 93.750 FPS (512 SPF)
    Bit depth : 24 bits
    Compression mode : Lossy
    Stream size : 1.26 GiB (15%)
    Language : English
    Default : Yes
    Forced : No
    Menu
    00: 00: 00.000 : en: 00: 00: 00.000
    00: 11: 50.083 : en: 00: 11: 50.083
    00: 27: 05.167 : en: 00: 27: 05.167
    00: 36: 59.167 : en: 00: 36: 59.167
    00: 46: 16.417 : en: 00: 46: 16.417
    00: 57: 17.333 : en: 00: 57: 17.333
    01: 09: 02.958 : en: 01: 09: 02.958
    01: 17: 41.417 : en: 01: 17: 41.417
    01: 28: 27.458 : en: 01: 28: 27.458
    01: 40: 45.167 : en: 01: 40: 45.167
    01: 48: 07.542 : en: 01: 48: 07.542
    01: 55: 45.500 : en: 01: 55: 45.500

    Скриншоты для ознакомления






    Все одноименные релизы в Клубе
    Время раздачи: 24/7 (круглосуточно) (до появления первых 3-5 скачавших)

    Онлайн видео Мозг Гиммлера зовется Гейдрихом



    Мозг Гиммлера зовется Гейдрихом/HHhH (2017) BDRip [H.264/1080p] [EN]
    загрузка...
    Рейтинг →
     (голосов: 1, оценка 3/5, голосовать можно 1 раз )

    Другие торренты по теме:

  • Мозг Гиммлера зовется Гейдрихом / HHhH (2017) BDRip [H.264 / 1080p] [PR] [AVO]
  • Мозг Гиммлера зовется Гейдрихом / HHhH / The Man with the Iron Heart (2017) BDRemux [H.264 / 1080p] [EN / Fr Sub]
  • Мозг Гиммлера зовется Гейдрихом / HHhH (2017) BDRemux [H.264 / 1080p] [AVO]
  • Мозг Гиммлера зовется Гейдрихом / HHhH (2017) HDRip [H.264] [AVO]
  • Мозг Гиммлера зовется Гейдрихом / HHhH (2017) HDRip [MVO] [AD]
  • Мозг Гиммлера зовется Гейдрихом / HHhH (2017) HDRip AVO]


    • Комментарии (0):

      Информация

      Информация

        Посетители, находящиеся в группе Гости, не могут оставлять комментарии в данной новости.

        ↓ Меню




        ↓ Опрос

        Вы добавили сайт в закладки?
        Да
        Нет


        Top 10 за месяц (Фильмы)