.
Авторизация | Регистрация
Хочешь лучшие торренты? Добавь свой email!
Добавить

Торрент скачать бесплатно

» » Опрометчивость / Indiscretion (2016) BDRemux [H.264 / 1080p] [EN / Ger Sub] торрент скачать бесплатно




    Опрометчивость / Indiscretion (2016) BDRemux [H.264 / 1080p] [EN / Ger Sub] торрент скачать бесплатно

    Опубликовал: Админ | Дата: 9-10-2017, 05:00 | Просмотров: 0

    Производство: США/Granfalloon Productions
    Жанр: триллер, драма, мелодрама, криминал
    Режиссер: Джон Стюарт Мюллер

    Актеры
    Мира Сорвино, Кэри Элвис, Кристофер Бакус, Кэтрин МакНамара, Лиза Гэй Хэмилтон, Мелора Уолтерс, Бак Тейлор, Шэйн Каллахан, Марко Ст. Джон, Джейсон Бэйл, Лилиана Тандон, Бриттани Кларк

    Описание

    Молодая и успешная Вероника, жена баллотирующегося в сенаторы политика, знакомится на благотворительной выставке со сногсшибательным скульптором Виктором. Но её мимолётная интрижка с ним приобретает угрожающие масштабы в самом разгаре предвыборной кампании. Веронику всё больше затягивает в тёмные сети страстного поклонника, который явно не намерен выпускать свою добычу из рук. Не успевает она опомниться, как над её браком, семьёй и жизнью нависает смертельная угроза.


    Продолжительность: 01: 39: 25
    Качество видео: BDRemux
    Перевод: Отсутствует
    Язык озвучки: Английский
    Субтитры: немецкие
    Видео: AVC, 1920x1080 (16: 9), 21500 kbps, 23.976 fps, 0.432 bpp
    Аудио: DTS-HD/5.1/48 kHz/1748 kbps/16 bit (Core: 5.1/48 kHz/1509 kbps/16 bit)
    Код: выделить все
    General
    Unique ID Indiscretion.2016.REMUX.BluRay.1080p.AVC.DTS-HD.MA5.1-iFT\Indiscretion.2016.REMUX.BluRay.1080p.AVC.DTS-HD.MA5.1-iFT.mkv
    Format : Matroska
    Format version : Version 4/Version 2
    File size : 15.9 GiB
    Duration : 1 h 39 min
    Overall bit rate mode : Variable
    Overall bit rate : 22.9 Mb/s
    Encoded date : UTC 2017-10-08 17:20:36
    Writing application : mkvmerge v8.5.1 (\\'Where you lead I will follow\\') 64bit
    Writing library : libebml v1.3.3 + libmatroska v1.4.4
    Video
    ID : 1
    Format : AVC
    Format/Info : Advanced Video Codec
    Format profile :High@L4.1
    Format settings, CABAC : Yes
    Format settings, ReFrames : 3 frames
    Codec ID : V_MPEG4/ISO/AVC
    Duration : 1 h 39 min
    Bit rate mode : Variable
    Bit rate : 21.5 Mb/s
    Maximum bit rate : 30.0 Mb/s
    Width : 1 920 pixels
    Height : 1 080 pixels
    Display aspect ratio : 16:9
    Frame rate mode : Constant
    Frame rate : 23.976 (24000/1001) FPS
    Standard : NTSC
    Color space : YUV
    Chroma subsampling : 4:2:0
    Bit depth : 8 bits
    Scan type : Progressive
    Bits/(Pixel*Frame) : 0.432
    Stream size : 14.7 GiB (92%)
    Writing library : x264pro - Adobe CS Exporter Plug-in
    Encoding settings : cabac=1/ref=4/deblock=1:-2:-2/analyse=0x3:0x113/me=umh/subme=9/psy=1/psy_rd=1.00:0.25/mixed_ref=1/me_range=16/chroma_me=1/trellis=1/8x8dct=1/cqm=0/deadzone=6, 6/fast_pskip=1/chroma_qp_offset=-4/threads=16/lookahead_threads=2/sliced_threads=0/slices=4/nr=0/decimate=0/interlaced=0/bluray_compat=1/constrained_intra=0/bframes=3/b_pyramid=1/b_adapt=2/b_bias=0/direct=3/weightb=1/open_gop=0/weightp=1/keyint=24/keyint_min=1/scenecut=40/intra_refresh=0/rc_lookahead=24/rc=abr/mbtree=1/bitrate=21500/ratetol=1.0/qcomp=0.80/qpmin=0/qpmax=69/qpstep=4/vbv_maxrate=30000/vbv_bufsize=30000/nal_hrd=vbr/ip_ratio=1.10/aq=1:0.05
    Default : No
    Forced : No
    Color range : Limited
    Color primaries : BT.709
    Transfer characteristics : BT.709
    Matrix coefficients : BT.709
    Audio
    ID : 2
    Format : DTS
    Format/Info : Digital Theater Systems
    Format profile : MA/Core
    Mode : 16
    Format settings, Endianness : Big
    Codec ID : A_DTS
    Duration : 1 h 39 min
    Bit rate mode : Variable/Constant
    Bit rate : 1 749 kb/s/1 509 kb/s
    Channel(s) : 6 channels
    Channel positions : Front: L C R, Side: L R, LFE
    Sampling rate : 48.0 kHz
    Frame rate : 93.750 FPS (512 spf)
    Bit depth : 16 bits
    Compression mode : Lossless/Lossy
    Stream size : 1.21 GiB (8%)
    Default : Yes
    Forced : No
    Text #1
    ID : 3
    Format : PGS
    Muxing mode : zlib
    Codec ID : S_HDMV/PGS
    Codec ID/Info : Picture based subtitle format used on BDs/HD-DVDs
    Duration : 1 h 36 min
    Bit rate : 10.3 kb/s
    Count of elements : 2584
    Stream size : 7.10 MiB (0%)
    Default : Yes
    Forced : No
    Text #2
    ID : 4
    Format : PGS
    Muxing mode : zlib
    Codec ID : S_HDMV/PGS
    Codec ID/Info : Picture based subtitle format used on BDs/HD-DVDs
    Duration : 3 s 378 ms
    Bit rate : 31.5 kb/s
    Count of elements : 4
    Stream size : 13.0 KiB (0%)
    Default : No
    Forced : No
    Menu
    00:00:00.000 : en:00:00:00.000
    00:05:52.394 : en:00:05:52.394
    00:12:35.046 : en:00:12:35.046
    00:21:55.940 : en:00:21:55.940
    00:28:12.566 : en:00:28:12.566
    00:37:31.916 : en:00:37:31.916
    00:42:29.255 : en:00:42:29.255
    00:47:34.435 : en:00:47:34.435
    00:56:20.002 : en:00:56:20.002
    01:01:52.042 : en:01:01:52.042
    01:06:29.694 : en:01:06:29.694
    01:12:32.807 : en:01:12:32.807
    01:18:33.584 : en:01:18:33.584
    01:23:23.457 : en:01:23:23.457
    01:30:07.652 : en:01:30:07.652
    01:36:47.927 : en:01:36:47.927


    Скриншоты для ознакомления



    Все одноименные релизы в Клубе
    Время раздачи: с 13: 00 до 23: 00

    Онлайн видео Опрометчивость



    Опрометчивость/Indiscretion (2016) BDRemux [H.264/1080p] [EN/Ger Sub]
    загрузка...
    Рейтинг →
     (голосов: 1, оценка 4/5, голосовать можно 1 раз )

    Другие торренты по теме:



      Комментарии (0):

      Информация

      Информация

        Посетители, находящиеся в группе Гости, не могут оставлять комментарии в данной новости.

        ↓ Меню




        ↓ Опрос

        Вы добавили сайт в закладки?
        Да
        Нет


        Top 10 за месяц (Фильмы)