.
Авторизация | Регистрация
Хочешь лучшие торренты? Добавь свой email!
Добавить

Торрент скачать бесплатно

» » Чужой: Завет / Alien: Covenant (2017) UHD BDRemux [H.265 / 2160p] [4K, HDR, 10-bit] торрент скачать бесплатно




    Чужой: Завет / Alien: Covenant (2017) UHD BDRemux [H.265 / 2160p] [4K, HDR, 10-bit] торрент скачать бесплатно

    Опубликовал: Админ | Дата: 9-10-2017, 05:00 | Просмотров: 0

    Производство: США, Великобритания, Австралия, Новая Зеландия, Канада/20th Century Fox Film Corporation
    Жанр: ужасы, фантастика, триллер
    Режиссер: Ридли Скотт
    Продюсер: Дэвид Гайлер, Эми Грин Винс, Уолтер Хилл

    Актеры
    Майкл Фассбендер, Кэтрин Уотерстон, Билли Крадап, Дэнни МакБрайд, Демиан Бишир, Кармен Эджого, Джусси Смоллетт, Калли Эрнандес, Эми Саймец, Натаниель Дин, Александр Инглэнд, Бенжамин Ригби, Ули Латукефу, Тесс Хобрич, Лорелей Кинг, Горан Д’Клюе

    Описание

    Во время обследования удаленной планеты, расположенной на другой стороне галактики, экипаж колониального корабля Завет обнаруживает, что то, что они изначально приняли за неизведанный рай, на самом деле — тёмный и опасный мир. Его единственный житель — синтетический андроид Дэвид, оставшийся в живых после обреченной экспедиционной миссии Прометей.

    Возраст: 18+ (зрителям, достигшим 18 лет. запрещено для детей)
    Рейтинг MPAA: R (лицам до 17 лет обязательно присутствие взрослого)
    Дата мировой премьеры: 4 мая 2017
    Премьера (РФ): 18 мая 2017, Двадцатый Век Фокс СНГ

    Релиз от: TERMiNAL, ExKinoRay
    Продолжительность: 02: 02: 03
    Качество: UHD BDRemux (HDR)
    Перевод: Дублированный (Лицензия BD EUR), Авторский (одноголосый, закадровый) (Алексей Матвеев)
    Субтитры: Русские (форс, полные + не цензурные), английские (full, SDH, SDH Colored)
    Видео: HEVC/H.265, 3840x2160p, (16: 9), 35.0 Mb/s, 23.976 fps
    Аудио: DTS, 6 ch, 768 kbps - Русский, Дубляж
    Аудио: DTS-HD MA, 8 ch, 5241 kbps - Русский, Алексей Матвеев
    Аудио: DTS-HD MA, 8 ch, 5240 kbps - Русский, Алексей Матвеев (ненорматив.)
    Аудио: DTS-HD MA, 8 ch, 5341 kbps - Английский
    Исходный диск на Blu-ray.com
    Просмотр 4K HDR-контента на ПК
    General
    Unique ID : 237385765606170758623268054393507366633 (0xB296D5DF1529C6EFB6D83FF7DD9946E9)
    Complete name : Alien.Covenant.2017.BDREMUX.2160p.4K.UltraHD.HDR.ExKinoRay.mkv
    Format : Matroska
    Format version : Version 4/Version 2
    File size : 44.0 GiB
    Duration : 2 h 2 min
    Overall bit rate : 51.6 Mb/s
    Encoded date : UTC 2017-10-07 01: 45: 05
    Writing application : mkvmerge v16.0.0 (\\'Protest\\') 64-bit
    Writing library : libebml v1.3.5 + libmatroska v1.4.8
    Video
    ID : 1
    Format : HEVC
    Format/Info : High Efficiency Video Coding
    Format profile : Main10@L5.1@High
    Codec ID : V_MPEGH/ISO/HEVC
    Duration : 2 h 2 min
    Bit rate : 35.0 Mb/s
    Width : 3 840 pixels
    Height : 2 160 pixels
    Display aspect ratio : 16: 9
    Frame rate mode : Constant
    Frame rate : 23.976 (24000/1001) FPS
    Color space : YUV
    Chroma subsampling : 4: 2: 0 (Type 2)
    Bit depth : 10 bits
    Bits/(Pixel*Frame) : 0.176
    Stream size : 29.8 GiB (68%)
    Writing library : ATEME Titan File 3.8.3 (4.8.3.0)
    Language : English
    Default : Yes
    Forced : No
    Color range : Limited
    Color primaries : BT.2020
    Transfer characteristics : SMPTE ST 2084
    Matrix coefficients : BT.2020 non-constant
    Mastering display color primaries : R: x=0.680000 y=0.320000, G: x=0.265000 y=0.690000, B: x=0.150000 y=0.060000, White point: x=0.312700 y=0.329000
    Mastering display luminance : min: 0.0050 cd/m2, max: 1000.0000 cd/m2
    Audio #1
    ID : 2
    Format : DTS
    Format/Info : Digital Theater Systems
    Mode : 16
    Format settings, Endianness : Big
    Codec ID : A_DTS
    Duration : 2 h 2 min
    Bit rate mode : Constant
    Bit rate : 768 kb/s
    Channel(s) : 6 channels
    Channel positions : Front: L C R, Side: L R, LFE
    Sampling rate : 48.0 kHz
    Frame rate : 93.750 FPS (512 SPF)
    Bit depth : 24 bits
    Compression mode : Lossy
    Stream size : 670 MiB (1%)
    Title : Dub License
    Language : Russian
    Default : Yes
    Forced : No
    Audio #2
    ID : 3
    Format : DTS
    Format/Info : Digital Theater Systems
    Format profile : MA/ES Matrix/Core
    Mode : 16
    Format settings, Endianness : Big
    Codec ID : A_DTS
    Duration : 2 h 2 min
    Bit rate mode : Variable/Constant/Constant
    Bit rate : 5 241 kb/s/1 509 kb/s/1 509 kb/s
    Channel(s) : 8 channels/7 channels/6 channels
    Channel positions : Front: L C R, Side: L R, Back: L R, LFE/Front: L C R, Side: L R, Back: C, LFE/Front: L C R, Side: L R, LFE
    Sampling rate : 48.0 kHz
    Frame rate : 93.750 FPS (512 SPF)
    Bit depth : 24 bits
    Compression mode : Lossless/Lossy/Lossy
    Stream size : 4.47 GiB (10%)
    Title : AVO (Матвеев)
    Language : Russian
    Default : No
    Forced : No
    Audio #3
    ID : 4
    Format : DTS
    Format/Info : Digital Theater Systems
    Format profile : MA/ES Matrix/Core
    Mode : 16
    Format settings, Endianness : Big
    Codec ID : A_DTS
    Duration : 2 h 2 min
    Bit rate mode : Variable/Constant/Constant
    Bit rate : 5 240 kb/s/1 509 kb/s/1 509 kb/s
    Channel(s) : 8 channels/7 channels/6 channels
    Channel positions : Front: L C R, Side: L R, Back: L R, LFE/Front: L C R, Side: L R, Back: C, LFE/Front: L C R, Side: L R, LFE
    Sampling rate : 48.0 kHz
    Frame rate : 93.750 FPS (512 SPF)
    Bit depth : 24 bits
    Compression mode : Lossless/Lossy/Lossy
    Stream size : 4.47 GiB (10%)
    Title : AVO (Матвеев (Ненорматив))
    Language : Russian
    Default : No
    Forced : No
    Audio #4
    ID : 5
    Format : DTS
    Format/Info : Digital Theater Systems
    Format profile : MA/ES Matrix/Core
    Mode : 16
    Format settings, Endianness : Big
    Codec ID : A_DTS
    Duration : 2 h 2 min
    Bit rate mode : Variable/Constant/Constant
    Bit rate : 5 341 kb/s/1 509 kb/s/1 509 kb/s
    Channel(s) : 8 channels/7 channels/6 channels
    Channel positions : Front: L C R, Side: L R, Back: L R, LFE/Front: L C R, Side: L R, Back: C, LFE/Front: L C R, Side: L R, LFE
    Sampling rate : 48.0 kHz
    Frame rate : 93.750 FPS (512 SPF)
    Bit depth : 24 bits
    Compression mode : Lossless/Lossy/Lossy
    Stream size : 4.55 GiB (10%)
    Title : Original
    Language : English
    Default : No
    Forced : No
    Text #1
    ID : 6
    Format : UTF-8
    Codec ID : S_TEXT/UTF8
    Codec ID/Info : UTF-8 Plain Text
    Duration : 1 h 45 min
    Bit rate : 0 b/s
    Count of elements : 8
    Stream size : 347 Bytes (0%)
    Title : forced
    Language : Russian
    Default : Yes
    Forced : No
    Text #2
    ID : 7
    Format : UTF-8
    Codec ID : S_TEXT/UTF8
    Codec ID/Info : UTF-8 Plain Text
    Duration : 1 h 55 min
    Bit rate : 69 b/s
    Count of elements : 862
    Stream size : 58.5 KiB (0%)
    Title : full
    Language : Russian
    Default : No
    Forced : No
    Text #3
    ID : 8
    Format : UTF-8
    Codec ID : S_TEXT/UTF8
    Codec ID/Info : UTF-8 Plain Text
    Duration : 1 h 55 min
    Bit rate : 69 b/s
    Count of elements : 862
    Stream size : 58.9 KiB (0%)
    Title : full \Матвеев (Ненорматив)\
    Language : Russian
    Default : No
    Forced : No
    Text #4
    ID : 9
    Format : UTF-8
    Codec ID : S_TEXT/UTF8
    Codec ID/Info : UTF-8 Plain Text
    Duration : 1 h 54 min
    Bit rate : 44 b/s
    Count of elements : 1451
    Stream size : 36.8 KiB (0%)
    Title : full
    Language : English
    Default : No
    Forced : No
    Text #5
    ID : 10
    Format : UTF-8
    Codec ID : S_TEXT/UTF8
    Codec ID/Info : UTF-8 Plain Text
    Duration : 1 h 54 min
    Bit rate : 52 b/s
    Count of elements : 1709
    Stream size : 44.3 KiB (0%)
    Title : SDH
    Language : English
    Default : No
    Forced : No
    Text #6
    ID : 11
    Format : UTF-8
    Codec ID : S_TEXT/UTF8
    Codec ID/Info : UTF-8 Plain Text
    Duration : 1 h 54 min
    Bit rate : 75 b/s
    Count of elements : 1709
    Stream size : 63.5 KiB (0%)
    Title : SDH Colored
    Language : English
    Default : No
    Forced : No
    Menu
    00: 00: 00.000 : en: Chapter 1
    00: 04: 47.662 : en: Chapter 2
    00: 13: 07.495 : en: Chapter 3
    00: 18: 11.924 : en: Chapter 4
    00: 22: 46.448 : en: Chapter 5
    00: 27: 51.169 : en: Chapter 6
    00: 33: 12.907 : en: Chapter 7
    00: 37: 18.736 : en: Chapter 8
    00: 42: 19.912 : en: Chapter 9
    00: 47: 43.694 : en: Chapter 10
    00: 52: 04.371 : en: Chapter 11
    00: 55: 56.269 : en: Chapter 12
    01: 00: 17.447 : en: Chapter 13
    01: 06: 20.643 : en: Chapter 14
    01: 11: 25.030 : en: Chapter 15
    01: 16: 35.882 : en: Chapter 16
    01: 21: 10.031 : en: Chapter 17
    01: 28: 18.793 : en: Chapter 18
    01: 31: 21.559 : en: Chapter 19
    01: 34: 52.436 : en: Chapter 20
    01: 39: 23.666 : en: Chapter 21
    01: 43: 35.876 : en: Chapter 22
    01: 50: 49.309 : en: Chapter 23
    01: 55: 27.754 : en: Chapter 24
    YouTube

    Скриншоты для ознакомления


    Релизы фильма Чужой: Завет/Alien: Covenant на NNM Club
    Время раздачи: с 9: 00 до 23: 00

    Онлайн видео Чужой: Завет



    Чужой: Завет/Alien: Covenant (2017) UHD BDRemux [H.265/2160p] [4K, HDR, 10-bit]
    загрузка...
    Рейтинг →
     (голосов: 1, оценка 4/5, голосовать можно 1 раз )

    Другие торренты по теме:

  • Alien: Covenant / Чужой: Завет (2017) WEBRip [H.264 / 1080p] [Трейлер]
  • Чужой: Завет / Alien: Covenant (2017) WEBRip [H.264 / 1080p] [Трейлер]
  • Чужой: Завет. Пролог: Связующее звено / Alien: Covenant. Prologue (2017) WEBRip [H.264 / 1080p] [Тизер]
  • Jed Kurzel - Alien: Covenant / Чужой: Завет (Original Soundtrack Album) (2017) [MP3|320 Kbps] <Score>
  • Jed Kurzel - Alien: Covenant / Чужой: Завет (Original Motion Picture Soundtrack) (2017) [FLAC|Lossless|WEB-DL|tracks]<Soundtrack>
  • Чужой: Завет / Alien: Covenant (2017) TS [H.264 / 720p-LQ] [AD]
  • Чужой:Завет / Alien:Covenant (2017) TS [AD]
  • Чужой: Завет / Alien: Covenant (2017) WEBRip [H.264 / 1080p-LQ] [Звук с TS] [AD]


    • Комментарии (0):

      Информация

      Информация

        Посетители, находящиеся в группе Гости, не могут оставлять комментарии в данной новости.

        ↓ Меню




        ↓ Опрос

        Вы добавили сайт в закладки?
        Да
        Нет


        Top 10 за месяц (Фильмы)