.
Авторизация | Регистрация
Хочешь лучшие торренты? Добавь свой email!
Добавить

Торрент скачать бесплатно

» » Пёс (2017) WEB-DLRip [H.264] (сезон 3, серии 1 из 20) (обновляемая) торрент скачать бесплатно




    Пёс (2017) WEB-DLRip [H.264] (сезон 3, серии 1 из 20) (обновляемая) торрент скачать бесплатно

    Опубликовал: Админ | Дата: 8-10-2017, 05:00 | Просмотров: 0

    Производство: Украина/PRO-TV
    Жанр: детектив
    Режиссер: Николай Каптан, Игорь Забара

    Актеры
    Андрей Саминин, Никита Панфилов, Михаил Жонин, Ольга Олексий, Денис Роднянский, Светлана Зельбет, Ольга Морозова, Тарас Мельничук и др.

    Описание

    Макс – алкоголик. Когда-то лучший сыщик в городе, Макс потерял все – работу, друзей, жену. У него остался единственный друг – Пес. После серии погонь, драк и перестрелок, Пес и Макс раскрыли тайну загадочного убийства. Макс с Псом снова стали детективами. Теперь каждый день начинается с того, что Пес и Макс пытаются выяснить, кто совершил преступление... И выяснить – кто из них лучший сыщик в городе!

    Возраст: 16+ (зрителям, достигшим 16 лет)
    Релиз от: Files-х
    Продолжительность: ~00: 49: 00 серия
    Качество видео: WEB-DLRip
    Язык озвучки: русский
    Видео: AVC/H.264, 1024x576 (16: 9), ~1600 Kbps
    Аудио: AC3, 2 ch, 192 Kbps

    General
    Unique ID : 232734238733416788731506868667267437870 (0xAF16FBE3E4024770B829E7EBB34C552E)
    Complete name : D: \СЕРИАЛЫ\ПЕС\Pes.3.(2017).WEB-DLRip.(AVC).Files-x\01.Pes.3.(2017), WEB-DLRip.(AVC).by.Серый1779.Files-x.mkv
    Format : Matroska
    Format version : Version 2
    File size : 620 MiB
    Duration : 48 min 20 s
    Overall bit rate : 1 793 kb/s
    Encoded date : UTC 2017-10-03 02: 00: 12
    Writing application : mkvmerge v7.8.0 (\\'River Man\\') 32bit built on Apr 3 2015 12: 11: 22
    Writing library : libebml v1.3.1 + libmatroska v1.4.2
    Video
    ID : 1
    Format : AVC
    Format/Info : Advanced Video Codec
    Format profile : High@L4.1
    Format settings, CABAC : Yes
    Format settings, RefFrames : 9 frames
    Codec ID : V_MPEG4/ISO/AVC
    Duration : 48 min 20 s
    Bit rate : 1 600 kb/s
    Width : 1 024 pixels
    Height : 576 pixels
    Display aspect ratio : 16: 9
    Frame rate mode : Constant
    Frame rate : 25.000 FPS
    Color space : YUV
    Chroma subsampling : 4: 2: 0
    Bit depth : 8 bits
    Scan type : Progressive
    Bits/(Pixel*Frame) : 0.109
    Stream size : 541 MiB (87%)
    Writing library : x264 core 146 r2538 121396c
    Encoding settings : cabac=1/ref=9/deblock=1: -2: -1/analyse=0x3: 0x113/me=umh/subme=9/psy=1/psy_rd=1.00: 0.15/mixed_ref=1/me_range=32/chroma_me=1/trellis=2/8x8dct=1/cqm=0/deadzone=21, 11/fast_pskip=0/chroma_qp_offset=-3/threads=6/lookahead_threads=1/sliced_threads=0/nr=0/decimate=1/interlaced=0/bluray_compat=0/constrained_intra=0/bframes=9/b_pyramid=2/b_adapt=2/b_bias=0/direct=1/weightb=1/open_gop=0/weightp=2/keyint=250/keyint_min=25/scenecut=40/intra_refresh=0/rc_lookahead=50/rc=2pass/mbtree=0/bitrate=1600/ratetol=1.0/qcomp=0.60/qpmin=0/qpmax=69/qpstep=4/cplxblur=20.0/qblur=0.5/vbv_maxrate=14000/vbv_bufsize=14000/nal_hrd=none/filler=0/ip_ratio=1.40/pb_ratio=1.30/aq=2: 1.00
    Default : Yes
    Forced : No
    Color range : Limited
    Color primaries : BT.709
    Transfer characteristics : BT.709
    Matrix coefficients : BT.709
    Audio
    ID : 2
    Format : AC-3
    Format/Info : Audio Coding 3
    Format settings, Endianness : Big
    Codec ID : A_AC3
    Duration : 48 min 20 s
    Bit rate mode : Constant
    Bit rate : 192 kb/s
    Channel(s) : 2 channels
    Channel positions : Front: L R
    Sampling rate : 48.0 kHz
    Frame rate : 31.250 FPS (1536 SPF)
    Bit depth : 16 bits
    Compression mode : Lossy
    Stream size : 66.4 MiB (11%)
    Service kind : Complete Main
    Default : Yes
    Forced : No


    Онлайн видео Пёс (2017) WEB



    Пёс (2017) WEB-DLRip [H.264] (сезон 3, серии 1 из 20) (обновляемая)
    загрузка...
    Рейтинг →
     (голосов: 1, оценка 4/5, голосовать можно 1 раз )

    Другие торренты по теме:

  • Чёрный список / The Blacklist (2017) WEB-DLRip (сезон 5, серии 1-3 из 22) LostFilm (обновляемая)
  • Сверхъестественное / Supernatural (2017) WEB-DLRip (сезон 13, серии 1 из 23) NewStudio & NovaFilm [AD] (обновляемая)
  • Битва экстрасенсов. Сезон №15. Выпуск №6 (2014) WEB-DLRip скачать через торрент бесплатно
  • Рассмеши комика. Сезон №9. Выпуск №1 (2015.02.21) WEB-DLRip
  • Халк и агенты СМЭШ (Халк и агенты У.Д.А.Р.) (Сезон 1, Серия: 1-26 из 26) / Hulk and the Agents of S.M.A.S.H. (2013) WEB-DLRip скачать через торрент бесплатно
  • Команда «Мстители» (Сезон 1, Серия: 1-26 из 26) / Мстители, общий сбор / Marvels Avengers Assemble (2013) WEB-DLRip скачать через торрент бесплатно
  • Выжить в лесу. Крымский сезон (2016) WEB-DLRip
  • Орел и решка. Рай и ад (2017) WEB-DLRip (сезон 13, выпуски 1-20 из 20) (Полный сезон!!!)


    • Комментарии (0):

      Информация

      Информация

        Посетители, находящиеся в группе Гости, не могут оставлять комментарии в данной новости.

        ↓ Меню




        ↓ Опрос

        Вы добавили сайт в закладки?
        Да
        Нет


        Top 10 за месяц (Фильмы)