.
Авторизация | Регистрация
Хочешь лучшие торренты? Добавь свой email!
Добавить

Торрент скачать бесплатно

» » Суббота (2017) WEBRip (серии 1-16 из 16) торрент скачать бесплатно




    Суббота (2017) WEBRip (серии 1-16 из 16) торрент скачать бесплатно

    Опубликовал: Админ | Дата: 8-10-2017, 05:00 | Просмотров: 0

    Производство: Украина/1+1 Продакшн, RunGo Studio
    Жанр: комедия, мелодрама
    Режиссер: Семен Горов

    Актеры
    Алексей Смолка, Татьяна Коновалова, Алиса Лукшина, Ринат Хабибулин, Неонила Белецкая, Станислав Москвин, Филипп Горенштейн, Эвелина Сакуро, Мирослава Филиппович, Дарья Трегубова и др.

    Описание

    История начинается с 15-й годовщины свадьбы Арины и Стёпы Каблуковых, которую они планировали отметить вдвоём дома, тихим субботним вечером. Сюрпризом для них становится появление непредсказуемых родственничков, которые смотрят на этот праздник совсем иначе. В итоге Каблуковы отмечают день свадьбы с таким размахом, что близкие вынуждены остаться в их доме, превращая жизнь хозяев в настоящее испытание. Гости и рады бы разъехаться, но каждую субботу что-то происходит…

    Дата мировой премьеры: 25 сентября 2017 (1+1, Украина)
    Продолжительность: ~ 00: 25: 00 серия
    Качество видео: WEBRip
    Язык озвучки: русский
    Видео: Xvid, 720x400 (16: 9), ~3029 Kbps
    Аудио: AC3, 2 ch, 192 kbps

    Общее
    Полное имя : D: \Мои фильмы\Subbota_1-16iz16_2017_XviD_WEBRip\Subbota_01.avi
    Формат : AVI
    Формат/Информация : Audio Video Interleave
    Размер файла : 556 Мбайт
    Продолжительность : 24 м. 2 с.
    Общий поток : 3231 Кбит/сек
    Программа кодирования : VirtualDubMod 1.5.10.3www.virtualdub-fr.org|| (build 2550/release)
    Библиотека кодирования : VirtualDub build 35491/release
    Видео
    Идентификатор : 0
    Формат : MPEG-4 Visual
    Профиль формата : Advanced Simple@L5
    Параметр BVOP формата : 2
    Параметр QPel формата : Нет
    Параметр GMC формата : Без точки перехода
    Параметр матрицы формата : Default (H.263)
    Идентификатор кодека : XVID
    Идентификатор кодека/Подсказка : XviD
    Продолжительность : 24 м. 2 с.
    Битрейт : 3029 Кбит/сек
    Ширина : 720 пикселей
    Высота : 400 пикселей
    Соотношение сторон : 16: 9
    Частота кадров : 25, 000 кадров/сек
    Цветовое пространство : YUV
    Субдискретизация насыщенности : 4: 2: 0
    Битовая глубина : 8 бит
    Тип развёртки : Прогрессивная
    Метод сжатия : С потерями
    Бит/(Пиксели*Кадры) : 0.421
    Размер потока : 521 Мбайт (94%)
    Библиотека кодирования : XviD 67
    Аудио
    Идентификатор : 1
    Формат : AC-3
    Формат/Информация : Audio Coding 3
    Параметр Endianness формата : Big
    Идентификатор кодека : 2000
    Продолжительность : 24 м. 2 с.
    Вид битрейта : Постоянный
    Битрейт : 192 Кбит/сек
    Каналы : 2 канала
    Расположение каналов : Front: L R
    Частота : 48, 0 КГц
    Частота кадров : 31, 250 кадров/сек (1536 SPF)
    Битовая глубина : 16 бит
    Метод сжатия : С потерями
    Размер потока : 33, 0 Мбайт (6%)
    Выравнивание : Соединение по промежуткам
    Продолжительность промежутка : 40 мс. (1, 00 видеокадр)
    Время предзагрузки промежутка : 512 мс.
    ServiceKind/String : Complete Main

    Скриншоты для ознакомления



    Все одноименные релизы в Клубе
    Время раздачи: с 07: 00 до 23: 30 (до появления первых 3-5 скачавших)

    Онлайн видео Суббота (2017) WEBRip (серии 1



    Суббота (2017) WEBRip (серии 1-16 из 16)
    загрузка...
    Рейтинг →
     (голосов: 1, оценка 5/5, голосовать можно 1 раз )

    Другие торренты по теме:

  • Жестокая суббота / Violent Saturday (1955) BDRip [H.264 / 720р-LQ]
  • Иван Суббота | Путь смерти (2016) [FB2]
  • Эдуардо Де Филиппо | Суббота, воскресенье, понедельник (1963) [MP3]
  • Иван Суббота | Адепт смерти (2017) [MP3]
  • Иван Суббота | Эксперт смерти (2017) [MP3]
  • Иван Суббота | Путь смерти (2017) [MP3]
  • Суббота (2017) WEB-DL [H.264 / 1080p-LQ] (серии 1-2 из 16) (обновляемая)


    • Комментарии (0):

      Информация

      Информация

        Посетители, находящиеся в группе Гости, не могут оставлять комментарии в данной новости.

        ↓ Меню




        ↓ Опрос

        Вы добавили сайт в закладки?
        Да
        Нет


        Top 10 за месяц (Фильмы)