.
Авторизация | Регистрация
Хочешь лучшие торренты? Добавь свой email!
Добавить

Торрент скачать бесплатно

» » Теория Большого Взрыва / The Big Bang Theory HDTV (2017) [H.264 / 1080p-LQ] (сезон 11, серии 1-2 из 24) (обновляемая) торрент скачать бесплатно




    Теория Большого Взрыва / The Big Bang Theory HDTV (2017) [H.264 / 1080p-LQ] (сезон 11, серии 1-2 из 24) (обновляемая) торрент скачать бесплатно

    Опубликовал: Админ | Дата: 8-10-2017, 05:00 | Просмотров: 0

    Производство: США, Chuck Lorre Productions, Warner Bros. Television
    Жанр: комедия, мелодрама
    Режиссер: Марк Сендроуски

    Актеры
    Джонни Галекки, Джим Парсонс, Кейли Куоко, Саймон Хельберг, Кунал Найяр, Мелисса Рауш, Майем Биэлик и др.

    Описание

    В центре внимания главные герои Шелдон Купер и Леонард Хофстадтер с самого детства отличались феноменальными умственными способностями, став взрослее ушли полностью в точную науку.
    Закончив Калифорнийский технологический институт оба устроились профессорами, на работу в один из самых престижных институтов физики в США. Леонард заведует кафедрой экспериментов, а Шелдон более склонен к теории. И всё же, хоть они и искусны в научной сфере - но реальная жизнь состоит не только из науки.

    Возраст: 16+ (зрителям, достигшим 16 лет)
    Рейтинг MPAA: PG-13 (детям до 13 лет просмотр нежелателен)
    Релиз от: Кураж-Бомбей
    Качество видео: HDTV
    Перевод: Одноголосый закадровый, профессиональный
    Субтитры: отсуствуют
    Реклама: отсутствует
    Видео: AVC/H.264, 1920x1080, ~10.9 Mb/s
    Аудио: AAC, 2 ch, 128 Kbps

    General
    Unique ID : 198266078283447955473704715168864979782 (0x9528A85FD42D047EABF02C3039AACB46)
    Complete name : C: \test\The.Big.Bang.Theory.S11E01.1080p.mkv
    Format : Matroska
    Format version : Version 4/Version 2
    File size : 1.60 GiB
    Duration : 20 min 49 s
    Overall bit rate : 11.0 Mb/s
    Encoded date : UTC 2017-09-29 21: 41: 04
    Writing application : mkvmerge v15.0.0 (\\'Duel with the Devil\\') 64-bit
    Writing library : libebml v1.3.5 + libmatroska v1.4.5
    Video
    ID : 2
    Format : AVC
    Format/Info : Advanced Video Codec
    Format profile : High@L4.1
    Format settings, CABAC : Yes
    Format settings, ReFrames : 4 frames
    Codec ID : V_MPEG4/ISO/AVC
    Duration : 20 min 47 s
    Bit rate : 10.9 Mb/s
    Width : 1 920 pixels
    Height : 1 080 pixels
    Display aspect ratio : 16: 9
    Frame rate mode : Constant
    Frame rate : 23.976 (24000/1001) FPS
    Color space : YUV
    Chroma subsampling : 4: 2: 0
    Bit depth : 8 bits
    Scan type : Progressive
    Bits/(Pixel*Frame) : 0.220
    Stream size : 1.58 GiB (99%)
    Writing library : x264 core 152 r2851 ba24899
    Encoding settings : cabac=1/ref=4/deblock=1: -2: -2/analyse=0x3: 0x113/me=umh/subme=11/psy=1/psy_rd=1.00: 0.00/mixed_ref=1/me_range=32/chroma_me=1/trellis=2/8x8dct=1/cqm=0/deadzone=21, 11/fast_pskip=0/chroma_qp_offset=-2/threads=12/lookahead_threads=1/sliced_threads=0/nr=0/decimate=1/interlaced=0/bluray_compat=0/constrained_intra=0/bframes=5/b_pyramid=2/b_adapt=1/b_bias=0/direct=3/weightb=1/open_gop=0/weightp=2/keyint=250/keyint_min=23/scenecut=40/intra_refresh=0/rc_lookahead=50/rc=crf/mbtree=1/crf=17.0/qcomp=0.60/qpmin=0/qpmax=69/qpstep=4/ip_ratio=1.40/aq=1: 1.00
    Language : English
    Default : No
    Forced : No
    Audio
    ID : 1
    Format : AAC
    Format/Info : Advanced Audio Codec
    Format profile : LC
    Codec ID : A_AAC
    Duration : 20 min 49 s
    Bit rate : 128 kb/s
    Channel(s) : 2 channels
    Channel positions : Front: L R
    Sampling rate : 44.1 kHz
    Frame rate : 43.066 FPS (1024 spf)
    Compression mode : Lossy
    Stream size : 19.1 MiB (1%)
    Default : Yes
    Forced : No


    Онлайн видео Теория Большого Взрыва



    Теория Большого Взрыва/The Big Bang Theory HDTV (2017) [H.264/1080p-LQ] (сезон 11, серии 1-2 из 24) (обновляемая)
    загрузка...
    Рейтинг →
     (голосов: 1, оценка 3/5, голосовать можно 1 раз )

    Другие торренты по теме:

  • Теория Большого Взрыва / The Big Bang Theory (2014) HDTVRip, [H.264 / 720p-LQ], (Сезон 8, Серии 1-2 из 24) [Прыг-Скок] (обновляемая)
  • Теория Большого Взрыва / The Big Bang Theory (2014) HDTVRip [H.264 / 720p-LQ] (Сезон 8, серии 1-2 из 24) [En En, Ru Sub] (обновляемая)
  • Теория большого взрыва / The Big Bang Theory (2014) WEB-DL [H.264 / 1080p-LQ] (сезон 8, серии 1-2 из 24) Кураж-Бамбей (обновляемая)
  • Теория Большого Взрыва / The Big Bang Theory (2014) WEB-DL [H.264 / 1080p-LQ] (Сезон 8, Серия 1-2 из 24) [Кураж-Бамбей] (Обновляемая)
  • Теория Большого Взрыва / The Big Bang Theory (2014) WEB-DL [H.264 / 720p-LQ] (Сезон 8, серии 1-3 из 24) (Кураж-Бамбей) (обновляемая) скачать через торрент бесплатно
  • Теория большого взрыва / The Big Bang Theory (2014) WEB-DL [H.264 / 720p-LQ] [Сезон 8, Серии 1-7 из 24] (DekinStudio) (обновляемая) скачать через торрент бесплатно
  • Теория большого взрыва / The Big Bang Theory (2013) BDRemux [1080p] (сезон 7, серии 1-24 из 24) [Кураж-Бамбей]
  • Теория большого взрыва / The Big Bang Theory (2010) BDRemux [1080p] (сезон 3, серии 1-23 из 23) (Кураж-Бамбей, СТС) скачать через торрент бесплатно


    • Комментарии (0):

      Информация

      Информация

        Посетители, находящиеся в группе Гости, не могут оставлять комментарии в данной новости.

        ↓ Меню




        ↓ Опрос

        Вы добавили сайт в закладки?
        Да
        Нет


        Top 10 за месяц (Фильмы)