.
Авторизация | Регистрация
Хочешь лучшие торренты? Добавь свой email!
Добавить

Торрент скачать бесплатно

» » Вспышка / Flashpoint (1984) DVDRip [H.264] торрент скачать бесплатно




    Вспышка / Flashpoint (1984) DVDRip [H.264] торрент скачать бесплатно

    Опубликовал: Админ | Дата: 8-10-2017, 05:00 | Просмотров: 0

    Производство: США/Home Box Office (HBO), Silver Screen Partners
    Жанр: Боевик, Триллер, Драма, Криминал, Детектив
    Режиссер: Уильям Тэннен
    Продюсер: Скип Шорт, Майкл Аппель, Франсетт Мейс

    Актеры
    Крис Кристофферсон, Трит Уильямс, Рип Торн, Кевин Конуэй, Кертвуд Смит, Мигель Феррер, Джин Смарт, Гай Бойд, Марк Слэйд, Робертс Блоссом, Тесс Харпер, Уильям Френкфазер, Терри Александр

    Описание

    Два офицера пограничного патруля случайно находят полузасыпанный песком джип, а в нем скелет, винтовку и 800 000 долларов наличными, что вовлекает их в таинственную историю, начало которой датируется 1963 годом. Эта находка повлекла за собой вереницу захватывающих и насыщенных экшеном приключений, ежеминутно грозящих им смертью. И связано это все, возможно, с убийством президента Кеннеди…

    Рейтинг MPAA: R (лицам до 17 лет обязательно присутствие взрослого)
    Релиз от: Охрана (NNMCLUB)
    Продолжительность: 01: 29: 31
    Качество видео: DVDRip
    Перевод: Дублированный, авторский
    Субтитры: Отсутствуют
    Видео: AVC/H.264, 720x416, ~1950 Kbps
    Аудио 1: Русский, AC3, 2 ch, 192 Kbps, 48.0 kHz (Dub, киностудия им. М. Горького + вставки VO в вырезанных в советском прокате сценах )
    Аудио 2: Русский, AC3, 2 ch, 192 Kbps, 48.0 kHz (AVO, А.Михалёв)
    Аудио 3: Английский, AC3, 2 ch, 192 Kbps, 48.0 kHz (Оригинал)

    General
    Unique ID : 192046098388516417906266025563461081663 (0x907ABBB04D880816A78BEAB5D9CD5A3F)
    Complete name : F: \Downloads\Вспышка. 1984. NNMCLUB.mkv
    Format : Matroska
    Format version : Version 4/Version 2
    File size : 1.58 GiB
    Duration : 1h 29mn
    Overall bit rate : 2 528 Kbps
    Encoded date : UTC 2017-10-04 22: 26: 38
    Writing application : mkvmerge v7.0.0 (\\'Where We Going\\') 32bit built on Jun 9 2014 15: 08: 34
    Writing library : libebml v1.3.0 + libmatroska v1.4.1
    DURATION : 01: 29: 31.104000000
    NUMBER_OF_FRAMES : 167847
    NUMBER_OF_BYTES : 128906496
    _STATISTICS_WRITING_APP : mkvmerge v7.0.0 (\\'Where We Going\\') 32bit built on Jun 9 2014 15: 08: 34
    _STATISTICS_WRITING_DATE_UTC : 2017-10-04 22: 26: 38
    _STATISTICS_TAGS : BPS DURATION NUMBER_OF_FRAMES NUMBER_OF_BYTES
    Video
    ID : 1
    Format : AVC
    Format/Info : Advanced Video Codec
    Format profile : High@L4.1
    Format settings, CABAC : Yes
    Format settings, ReFrames : 12 frames
    Codec ID : V_MPEG4/ISO/AVC
    Duration : 1h 29mn
    Bit rate : 1 950 Kbps
    Width : 720 pixels
    Height : 416 pixels
    Display aspect ratio : 1.731
    Frame rate mode : Constant
    Frame rate : 25.000 fps
    Color space : YUV
    Chroma subsampling : 4: 2: 0
    Bit depth : 8 bits
    Scan type : Progressive
    Bits/(Pixel*Frame) : 0.260
    Stream size : 1.19 GiB (75%)
    Title : Flashpoint
    Writing library : x264 core 125 r2208 d9d2288
    Encoding settings : cabac=1/ref=12/deblock=1: -1: -1/analyse=0x3: 0x133/me=umh/subme=10/psy=1/psy_rd=1.00: 0.10/mixed_ref=1/me_range=32/chroma_me=1/trellis=2/8x8dct=1/cqm=0/deadzone=21, 11/fast_pskip=0/chroma_qp_offset=-3/threads=6/lookahead_threads=1/sliced_threads=0/nr=0/decimate=0/interlaced=0/bluray_compat=0/constrained_intra=0/bframes=7/b_pyramid=2/b_adapt=2/b_bias=0/direct=3/weightb=1/open_gop=0/weightp=2/keyint=250/keyint_min=25/scenecut=40/intra_refresh=0/rc_lookahead=60/rc=2pass/mbtree=1/bitrate=1950/ratetol=1.0/qcomp=0.60/qpmin=0/qpmax=69/qpstep=4/cplxblur=20.0/qblur=0.5/ip_ratio=1.40/aq=1: 1.00
    Language : English
    Default : Yes
    Forced : No
    Audio #1
    ID : 2
    Format : AC-3
    Format/Info : Audio Coding 3
    Mode extension : CM (complete main)
    Format settings, Endianness : Big
    Codec ID : A_AC3
    Duration : 1h 29mn
    Bit rate mode : Constant
    Bit rate : 192 Kbps
    Channel(s) : 2 channels
    Channel positions : Front: L R
    Sampling rate : 48.0 KHz
    Bit depth : 16 bits
    Compression mode : Lossy
    Stream size : 123 MiB (8%)
    Title : Дубляж
    Language : Russian
    Default : Yes
    Forced : No
    Audio #2
    ID : 3
    Format : AC-3
    Format/Info : Audio Coding 3
    Mode extension : CM (complete main)
    Format settings, Endianness : Big
    Codec ID : A_AC3
    Duration : 1h 29mn
    Bit rate mode : Constant
    Bit rate : 192 Kbps
    Channel(s) : 2 channels
    Channel positions : Front: L R
    Sampling rate : 48.0 KHz
    Bit depth : 16 bits
    Compression mode : Lossy
    Stream size : 123 MiB (8%)
    Title : Авторский, А.Михалёв
    Language : Russian
    Default : No
    Forced : No
    Audio #3
    ID : 4
    Format : AC-3
    Format/Info : Audio Coding 3
    Mode extension : CM (complete main)
    Format settings, Endianness : Big
    Codec ID : A_AC3
    Duration : 1h 29mn
    Bit rate mode : Constant
    Bit rate : 192 Kbps
    Channel(s) : 2 channels
    Channel positions : Front: L R
    Sampling rate : 48.0 KHz
    Bit depth : 16 bits
    Compression mode : Lossy
    Stream size : 123 MiB (8%)
    Title : Оригинал
    Language : English
    Default : No
    Forced : No

    Скриншоты для ознакомления




    Все одноименные релизы в Клубе
    Время раздачи: с 13: 00 до 01: 00 МСК, выходные круглосуточно (до появления первых 3-5 скачавших)

    Онлайн видео Вспышка



    Вспышка/Flashpoint (1984) DVDRip [H.264]
    загрузка...
    Рейтинг →
     (голосов: 1, оценка 5/5, голосовать можно 1 раз )

    Другие торренты по теме:

  • Вспышка гнева / Huff (2013) HDRipскачать через торрент бесплатно
  • Вспышка на звонок 3.0 [Ru] скачать через торрент бесплатно
  • Вспышка во тьме / Nightbreaker (1989) TVRip [H.264] [EN] скачать через торрент бесплатно
  • Александр Заморин и Софи Лебедева | Чертова вспышка (2016) DVDRip


    • Комментарии (0):

      Информация

      Информация

        Посетители, находящиеся в группе Гости, не могут оставлять комментарии в данной новости.

        ↓ Меню




        ↓ Опрос

        Вы добавили сайт в закладки?
        Да
        Нет


        Top 10 за месяц (Фильмы)