.
Авторизация | Регистрация
Хочешь лучшие торренты? Добавь свой email!
Добавить

Торрент скачать бесплатно

» » Инспектор-разиня / Inspecteur la Bavure (1980) DVDRip [H.264] торрент скачать бесплатно




    Инспектор-разиня / Inspecteur la Bavure (1980) DVDRip [H.264] торрент скачать бесплатно

    Опубликовал: Админ | Дата: 8-10-2017, 05:00 | Просмотров: 0

    Производство: Франция/France 3 (FR 3), Renn Productions
    Жанр: Комедия, Криминал
    Режиссер: Клод Зиди
    Продюсер: Клод Берри, Пьер Грюнштейн

    Актеры
    Колюш, Жерар Депардье, Доминик Лаванан, Жюльен Гиомар, Алан Мотте, Франсуа Перро, Жан Бушо, Клеман Арари, Филипп Хорсан, Мартен Ламотт

    Описание

    Сын великого полицейского Клеман, следуя завету отца, пошел по его стопам. Будучи баснословным растяпой, он в первый же день службы попадает в нелепейшую историю! Его перепутали с преступником и чуть не упекли за решетку. Так началась его карьера.
    В один прекрасный момент, благодаря своей доверчивости, он становится сообщником преступника-рецидивиста, который с его помощью похищает известную журналистку. Осознав свою ошибку, Клеман самоотверженно бросается ей на помощь!

    Возраст: 12+ (зрителям, достигшим 12 лет)
    Релиз от: Охрана (NNMCLUB)
    Продолжительность: 01: 37: 56
    Качество видео: DVDRip
    Перевод: Дублированный (киностудия им. М. Горького)
    Субтитры: Отсутствуют
    Видео: AVC/H.264, 720x432, ~1950 Kbps
    Аудио 1: Русский, AC3, 6 ch, 384 Kbps, 48.0 kHz
    Аудио 2: Французский, AC3, 2 ch, 192 Kbps, 48.0 kHz

    General
    Unique ID : 249647443246174491612203878756632149656 (0xBBD059410B6BD3E4945667E1683EBE98)
    Complete name : F: \Downloads\Инспектор-разиня. 1980. NNMCLUB.mkv
    Format : Matroska
    Format version : Version 4/Version 2
    File size : 1.73 GiB
    Duration : 1h 37mn
    Overall bit rate : 2 528 Kbps
    Encoded date : UTC 2017-10-05 22: 33: 52
    Writing application : mkvmerge v7.0.0 (\\'Where We Going\\') 32bit built on Jun 9 2014 15: 08: 34
    Writing library : libebml v1.3.0 + libmatroska v1.4.1
    DURATION : 01: 37: 56.096000000
    NUMBER_OF_FRAMES : 183628
    NUMBER_OF_BYTES : 141026304
    _STATISTICS_WRITING_APP : mkvmerge v7.0.0 (\\'Where We Going\\') 32bit built on Jun 9 2014 15: 08: 34
    _STATISTICS_WRITING_DATE_UTC : 2017-10-05 22: 33: 52
    _STATISTICS_TAGS : BPS DURATION NUMBER_OF_FRAMES NUMBER_OF_BYTES
    Video
    ID : 1
    Format : AVC
    Format/Info : Advanced Video Codec
    Format profile : High@L4.1
    Format settings, CABAC : Yes
    Format settings, ReFrames : 12 frames
    Codec ID : V_MPEG4/ISO/AVC
    Duration : 1h 37mn
    Bit rate : 1 950 Kbps
    Width : 720 pixels
    Height : 432 pixels
    Display aspect ratio : 1.667
    Frame rate mode : Constant
    Frame rate : 25.000 fps
    Color space : YUV
    Chroma subsampling : 4: 2: 0
    Bit depth : 8 bits
    Scan type : Progressive
    Bits/(Pixel*Frame) : 0.251
    Stream size : 1.30 GiB (75%)
    Title : Inspecteur la Bavure
    Writing library : x264 core 125 r2208 d9d2288
    Encoding settings : cabac=1/ref=12/deblock=1: -1: -1/analyse=0x3: 0x133/me=umh/subme=10/psy=1/psy_rd=1.00: 0.10/mixed_ref=1/me_range=32/chroma_me=1/trellis=2/8x8dct=1/cqm=0/deadzone=21, 11/fast_pskip=0/chroma_qp_offset=-3/threads=6/lookahead_threads=1/sliced_threads=0/nr=0/decimate=0/interlaced=0/bluray_compat=0/constrained_intra=0/bframes=7/b_pyramid=2/b_adapt=2/b_bias=0/direct=3/weightb=1/open_gop=0/weightp=2/keyint=250/keyint_min=25/scenecut=40/intra_refresh=0/rc_lookahead=60/rc=2pass/mbtree=1/bitrate=1950/ratetol=1.0/qcomp=0.60/qpmin=0/qpmax=69/qpstep=4/cplxblur=20.0/qblur=0.5/ip_ratio=1.40/aq=1: 1.00
    Language : French
    Default : Yes
    Forced : No
    Audio #1
    ID : 2
    Format : AC-3
    Format/Info : Audio Coding 3
    Mode extension : CM (complete main)
    Format settings, Endianness : Big
    Codec ID : A_AC3
    Duration : 1h 37mn
    Bit rate mode : Constant
    Bit rate : 384 Kbps
    Channel(s) : 6 channels
    Channel positions : Front: L C R, Side: L R, LFE
    Sampling rate : 48.0 KHz
    Bit depth : 16 bits
    Compression mode : Lossy
    Stream size : 269 MiB (15%)
    Title : Дубляж
    Language : Russian
    Default : Yes
    Forced : No
    Audio #2
    ID : 3
    Format : AC-3
    Format/Info : Audio Coding 3
    Mode extension : CM (complete main)
    Format settings, Endianness : Big
    Codec ID : A_AC3
    Duration : 1h 37mn
    Bit rate mode : Constant
    Bit rate : 192 Kbps
    Channel(s) : 2 channels
    Channel positions : Front: L R
    Sampling rate : 48.0 KHz
    Bit depth : 16 bits
    Compression mode : Lossy
    Stream size : 134 MiB (8%)
    Title : Оригинал
    Language : French
    Default : No
    Forced : No

    Скриншоты для ознакомления




    Все одноименные релизы в Клубе
    Время раздачи: с 13: 00 до 01: 00 МСК, выходные круглосуточно (до появления первых 3-5 скачавших)

    Онлайн видео Инспектор-разиня



    Инспектор-разиня/Inspecteur la Bavure (1980) DVDRip [H.264]
    загрузка...
    Рейтинг →
     (голосов: 1, оценка 5/5, голосовать можно 1 раз )

    Другие торренты по теме:

  • Инспектор-разиня / Inspecteur la Bavure (1980) HDTVRip [H.264 / 1080p]


    • Комментарии (0):

      Информация

      Информация

        Посетители, находящиеся в группе Гости, не могут оставлять комментарии в данной новости.

        ↓ Меню




        ↓ Опрос

        Вы добавили сайт в закладки?
        Да
        Нет


        Top 10 за месяц (Фильмы)