.
Авторизация | Регистрация
Хочешь лучшие торренты? Добавь свой email!
Добавить

Торрент скачать бесплатно

» » Твонки / The Twonky (1953) TVRip [VO] торрент скачать бесплатно




    Твонки / The Twonky (1953) TVRip [VO] торрент скачать бесплатно

    Опубликовал: Админ | Дата: 8-10-2017, 05:00 | Просмотров: 0

    Производство: США, Arch Oboler Productions
    Жанр: Фантастика, Комедия
    Режиссер: Арч Оболер

    Актеры
    Ганс Конрид, Илэйн Мори, Уильям Х. Линн, Эдвин Макс, Глория Блонделл, Эвелин Бересфорд, Норман Филд, Элис Бэкес, Трилби Конрид, Джо Хоторн

    Описание

    В доме профессора философии, после отъезда его жены, появляется странный телевизор, который мало того ходит, но еще начинает наводить свои порядки.

    Релиз от: Трамвай-фильм
    Продолжительность: 01: 09: 26
    Качество видео: TVRip
    Перевод: Одноголосый закадровый
    Автор перевода: Трамвай-фильм
    Субтитры: отсутствуют
    Видео: Xvid, 480x352, ~793 kbps
    Аудио: MP3, 2 ch, 128 kbps

    Video
    ID : 0
    Format : MPEG-4 Visual
    Format profile : Simple@L3
    Format settings, BVOP : No
    Format settings, QPel : No
    Format settings, GMC : No warppoints
    Format settings, Matrix : Default (H.263)
    Codec ID : XVID
    Codec ID/Hint : XviD
    Duration : 1 h 9 min
    Bit rate : 793 kb/s
    Width : 480 pixels
    Height : 352 pixels
    Display aspect ratio : 4: 3
    Frame rate : 29.970 (30000/1001) FPS
    Original frame rate : 29.000 FPS
    Color space : YUV
    Chroma subsampling : 4: 2: 0
    Bit depth : 8 bits
    Scan type : Progressive
    Compression mode : Lossy
    Bits/(Pixel*Frame) : 0.157
    Stream size : 394 MiB (84%)
    Writing library : XviD 1.2.1 (UTC 2008-12-04)
    Audio
    ID : 1
    Format : MPEG Audio
    Format version : Version 1
    Format profile : Layer 3
    Mode : Joint stereo
    Codec ID : 55
    Codec ID/Hint : MP3
    Duration : 1 h 9 min
    Bit rate mode : Constant
    Bit rate : 128 kb/s
    Channel(s) : 2 channels
    Sampling rate : 44.1 kHz
    Compression mode : Lossy
    Stream size : 63.6 MiB (14%)
    Alignment : Aligned on interleaves
    Interleave, duration : 26 ms (0.78 video frame)
    Writing library : LAME3.98.2

    Скриншоты для ознакомления



    Все одноименные релизы в Клубе
    Время раздачи: Пн-Пт с 19: 00 до 23: 45, Сб-Вс с 13: 00 до 23: 45

    Онлайн видео Твонки



    Твонки/The Twonky (1953) TVRip [VO]
    загрузка...
    Рейтинг →
     (голосов: 1, оценка 4/5, голосовать можно 1 раз )

    Другие торренты по теме:



      Комментарии (0):

      Информация

      Информация

        Посетители, находящиеся в группе Гости, не могут оставлять комментарии в данной новости.

        ↓ Меню




        ↓ Опрос

        Вы добавили сайт в закладки?
        Да
        Нет


        Top 10 за месяц (Фильмы)