.
Авторизация | Регистрация
Хочешь лучшие торренты? Добавь свой email!
Добавить

Торрент скачать бесплатно

» » Заклятье. Наши дни / The Crucifixion (2017) WEB-DL [H.264 / 720p-LQ] [EN] торрент скачать бесплатно




    Заклятье. Наши дни / The Crucifixion (2017) WEB-DL [H.264 / 720p-LQ] [EN] торрент скачать бесплатно

    Опубликовал: Админ | Дата: 8-10-2017, 05:00 | Просмотров: 0

    Производство: Великобритания, Румыния/Motion Picture Capital, Premiere Picture, Safran Company, The
    Жанр: Ужасы, Детектив, Триллер
    Режиссер: Ксавье Жанс
    Продюсер: Леон Клэранс, Питер Сафран, Кристиан Бостанеску

    Актеры
    Софи Куксон, Корнелиу Улич, Бриттани Эшворт, Мэтью Заяц, Диана Владу, Florian Voicu, Раду Банзару, Хавьер Ботет, Иван Гонсалес, Emil Mandanac

    Описание

    В 2005 году пять священнослужителей обвиняются в убийстве монахини, над которой проводился обряд экзорцизма. Журналистка Николь начинает свое независимое расследование. Но по мере погружения в цепь необъяснимых событий она все больше становится их неотъемлемой частью и все больше склоняется к тому, что служители культа проиграли сражение с демонической сущностью, а экзорцизм стал орудием демона в его страшном ритуале.

    Возраст: 18+ (зрителям, достигшим 18 лет. запрещено для детей)
    Рейтинг MPAA: R (лицам до 17 лет обязательно присутствие взрослого)
    Премьера (мир): 1 июля 2017
    Премьера (РФ): 12 октября 2017, Экспонента

    Продолжительность: 01: 29: 53
    Качество видео: WEB-DL 720p
    Перевод: Отсутствует
    Язык озвучки: Английский
    Субтитры: Отсутствуют
    Видео: AVC, 1280x538 (2.35: 1), 23.976 fps, 3 970 Kbps (0.240 bit/pixel)
    Аудио: AC-3, 48.0 KHz, 6 ch, 384 Kbps, CBR (English)
    General
    Complete name : The.Crucifixion.2017.720p.WEB-DL.DD5.1.H264.mkv
    Format : Matroska
    Format version : Version 4/Version 2
    File size : 2.79 GiB
    Duration : 1 h 29 min
    Overall bit rate : 4 443 kb/s
    Encoded date : UTC 2017-10-06 18: 12: 00
    Writing application : mkvmerge v16.0.0 (\\'Protest\\') 64-bit
    Writing library : libebml v1.3.5 + libmatroska v1.4.8
    Video
    ID : 1
    Format : AVC
    Format/Info : Advanced Video Codec
    Format profile : Main@L3.1
    Format settings : 2 Ref Frames
    Format settings, CABAC : No
    Format settings, RefFrames : 2 frames
    Codec ID : V_MPEG4/ISO/AVC
    Duration : 1 h 29 min
    Bit rate : 3 970 kb/s
    Width : 1 280 pixels
    Height : 538 pixels
    Display aspect ratio : 2.40: 1
    Frame rate mode : Constant
    Frame rate : 23.976 (24000/1001) FPS
    Color space : YUV
    Chroma subsampling : 4: 2: 0
    Bit depth : 8 bits
    Scan type : Progressive
    Bits/(Pixel*Frame) : 0.240
    Stream size : 2.49 GiB (89%)
    Language : English
    Default : Yes
    Forced : No
    Color range : Limited
    Color primaries : BT.709
    Transfer characteristics : BT.709
    Matrix coefficients : BT.709
    Audio
    ID : 2
    Format : AC-3
    Format/Info : Audio Coding 3
    Format settings, Endianness : Big
    Codec ID : A_AC3
    Duration : 1 h 29 min
    Bit rate mode : Constant
    Bit rate : 384 kb/s
    Channel(s) : 6 channels
    Channel positions : Front: L C R, Side: L R, LFE
    Sampling rate : 48.0 kHz
    Frame rate : 31.250 FPS (1536 SPF)
    Bit depth : 16 bits
    Compression mode : Lossy
    Stream size : 247 MiB (9%)
    Language : English
    Service kind : Complete Main
    Default : Yes
    Forced : No
    Menu
    00: 00: 00.000 : en: 1
    00: 03: 05.000 : en: 2
    00: 14: 38.000 : en: 3
    00: 26: 04.000 : en: 4
    00: 40: 36.000 : en: 5
    00: 52: 50.000 : en: 6
    01: 04: 58.000 : en: 7
    01: 16: 04.000 : en: 8
    01: 26: 00.000 : en: 9


    Онлайн видео Заклятье. Наши дни



    Заклятье. Наши дни/The Crucifixion (2017) WEB-DL [H.264/720p-LQ] [EN]
    загрузка...
    Рейтинг →
     (голосов: 1, оценка 4/5, голосовать можно 1 раз )

    Другие торренты по теме:

  • Заклятье: Наши дни / The Crucifixion (2017) WEB-DLRip [MVO] [AD]
  • Заклятье: Наши дни / The Crucifixion (2017) WEB-DLRip [H.264 / 720p-LQ] [MVO] [AD]
  • Заклятье. Наши дни / The Crucifixion (2017) HDRip
  • Заклятье. Наши дни / The Crucifixion (2017) BDRemux [H.264 / 1080p] [EN / EN, Sp Sub]
  • Заклятье. Наши дни / The Crucifixion (2017) BDRip [H.264 / 720p]


    • Комментарии (0):

      Информация

      Информация

        Посетители, находящиеся в группе Гости, не могут оставлять комментарии в данной новости.

        ↓ Меню




        ↓ Опрос

        Вы добавили сайт в закладки?
        Да
        Нет


        Top 10 за месяц (Фильмы)