.
Авторизация | Регистрация
Хочешь лучшие торренты? Добавь свой email!
Добавить

Торрент скачать бесплатно

» » Сломанная стрела / Broken Arrow (1996) BDRip [H.264] торрент скачать бесплатно




    Сломанная стрела / Broken Arrow (1996) BDRip [H.264] торрент скачать бесплатно

    Опубликовал: Админ | Дата: 8-10-2017, 05:00 | Просмотров: 0

    Производство: США/20th Century Fox Film Corporation, Mark Gordon Productions, WCG Entertainment Productions
    Жанр: Боевик, Криминал, Триллер
    Режиссер: Джон Ву
    Продюсер: Билл Бадалато, Теренс Чан, Марк Гордон

    Актеры
    Джон Траволта, Кристиан Слэйтер, Саманта Мэтис, Делрой Линдо, Боб Гантон, Фрэнк Уэйли, Хоуи Лонг, Вонди Куртис-Холл, Джек Томпсон, Вито Руджинис

    Описание

    История двух пилотов-асов американских ВВС. Им поручается выполнить секретное задание на самолете-невидимке с двумя ядерными боеголовками на борту. Дикенс, неудачник по жизни, постоянно пропускающий повышения по службе, задумывает похитить боеголовки, с тем чтобы шантажировать правительство США. Но его напарник Хэйл — честный парень и не позволит никому так просто взять и украсть собственность своей родной страны. Между ними разгорается самая настоящая война, в которой могут погибнуть не только они, но и несколько миллионов мирных жителей, живущих в округе, если хотя бы одна ядерная боеголовка взорвется.

    Возраст: 16+ (зрителям, достигшим 16 лет)
    Рейтинг MPAA: R (лицам до 17 лет обязательно присутствие взрослого)
    Релиз от: RG NNM Club Video
    Продолжительность: 01: 48: 24
    Качество видео: BDRip
    Перевод: Многоголосый х4, Авторский х4
    Субтитры: Русские, Английские
    Видео: AVC/H.264, 1024x432, ~2839 kbps, 23, 976 fps
    Аудио #01: AC3, 2 ch, 192 kbps (Русский - Многоголосый \\'\\'R5\\'\\')
    Аудио #02: AC3, 2 ch, 192 kbps (Русский - Многоголосый \\'\\'Киномания\\'\\')
    Аудио #03: AC3, 2 ch, 192 kbps (Русский - Многоголосый \\'\\'ОРТ\\'\\')
    Аудио #04: AC3, 2 ch, 192 kbps (Русский - Многоголосый \\'\\'Премьер Видео Фильм\\'\\')
    Аудио #05: AC3, 2 ch, 192 kbps (Русский - Авторский \\'\\'Сергей Визгунов\\'\\') - Отдельным файлом
    Аудио #06: AC3, 2 ch, 192 kbps (Русский - Авторский \\'\\'Андрей Гаврилов\\'\\') - Отдельным файлом
    Аудио #07: AC3, 2 ch, 192 kbps (Русский - Авторский \\'\\'Евгений Гаевский\\'\\') - Отдельным файлом
    Аудио #08: AC3, 2 ch, 192 kbps (Русский - Авторский \\'\\'Юрий Живов\\'\\') - Отдельным файлом
    Аудио #09: AC3, 2 ch, 192 kbps (Английский) - Отдельным файлом
    YouTube

    -Information 06.10.2017 21: 22: 30 x264 info: frame I: 1044 Avg QP: 16.59 size: 63424
    -Information 06.10.2017 21: 22: 30 x264 info: frame P: 36404 Avg QP: 19.15 size: 26909
    -Information 06.10.2017 21: 22: 30 x264 info: frame B: 118428 Avg QP: 20.61 size: 10644

    Общее
    Полное имя : Broken.Arrow.1996.nnm_video\Audio - 05.ac3
    Формат : AC-3
    Формат/Информация : Audio Coding 3
    Размер файла : 149 Мбайт
    Продолжительность : 1 ч. 48 м.
    Режим общего битрейта : Постоянный
    Общий поток : 192 Кбит/сек
    Аудио
    Формат : AC-3
    Формат/Информация : Audio Coding 3
    Параметр Endianness формата : Big
    Продолжительность : 1 ч. 48 м.
    Вид битрейта : Постоянный
    Битрейт : 192 Кбит/сек
    Каналы : 2 канала
    Расположение каналов : Front: L R
    Частота : 48, 0 КГц
    Частота кадров : 31, 250 кадров/сек (1536 SPF)
    Битовая глубина : 16 бит
    Метод сжатия : С потерями
    Размер потока : 149 Мбайт (100%)
    ServiceKind/String : Complete Main
    Общее
    Полное имя : Broken.Arrow.1996.nnm_video\Audio - 06.ac3
    Формат : AC-3
    Формат/Информация : Audio Coding 3
    Размер файла : 149 Мбайт
    Продолжительность : 1 ч. 48 м.
    Режим общего битрейта : Постоянный
    Общий поток : 192 Кбит/сек
    Аудио
    Формат : AC-3
    Формат/Информация : Audio Coding 3
    Параметр Endianness формата : Big
    Продолжительность : 1 ч. 48 м.
    Вид битрейта : Постоянный
    Битрейт : 192 Кбит/сек
    Каналы : 2 канала
    Расположение каналов : Front: L R
    Частота : 48, 0 КГц
    Частота кадров : 31, 250 кадров/сек (1536 SPF)
    Битовая глубина : 16 бит
    Метод сжатия : С потерями
    Размер потока : 149 Мбайт (100%)
    ServiceKind/String : Complete Main
    Общее
    Полное имя : Broken.Arrow.1996.nnm_video\Audio - 07.ac3
    Формат : AC-3
    Формат/Информация : Audio Coding 3
    Размер файла : 149 Мбайт
    Продолжительность : 1 ч. 48 м.
    Режим общего битрейта : Постоянный
    Общий поток : 192 Кбит/сек
    Аудио
    Формат : AC-3
    Формат/Информация : Audio Coding 3
    Параметр Endianness формата : Big
    Продолжительность : 1 ч. 48 м.
    Вид битрейта : Постоянный
    Битрейт : 192 Кбит/сек
    Каналы : 2 канала
    Расположение каналов : Front: L R
    Частота : 48, 0 КГц
    Частота кадров : 31, 250 кадров/сек (1536 SPF)
    Битовая глубина : 16 бит
    Метод сжатия : С потерями
    Размер потока : 149 Мбайт (100%)
    ServiceKind/String : Complete Main
    Общее
    Полное имя : Broken.Arrow.1996.nnm_video\Audio - 08.ac3
    Формат : AC-3
    Формат/Информация : Audio Coding 3
    Размер файла : 149 Мбайт
    Продолжительность : 1 ч. 48 м.
    Режим общего битрейта : Постоянный
    Общий поток : 192 Кбит/сек
    Аудио
    Формат : AC-3
    Формат/Информация : Audio Coding 3
    Параметр Endianness формата : Big
    Продолжительность : 1 ч. 48 м.
    Вид битрейта : Постоянный
    Битрейт : 192 Кбит/сек
    Каналы : 2 канала
    Расположение каналов : Front: L R
    Частота : 48, 0 КГц
    Частота кадров : 31, 250 кадров/сек (1536 SPF)
    Битовая глубина : 16 бит
    Метод сжатия : С потерями
    Размер потока : 149 Мбайт (100%)
    ServiceKind/String : Complete Main
    Общее
    Полное имя : Broken.Arrow.1996.nnm_video\Audio - 09.ac3
    Формат : AC-3
    Формат/Информация : Audio Coding 3
    Размер файла : 149 Мбайт
    Продолжительность : 1 ч. 48 м.
    Режим общего битрейта : Постоянный
    Общий поток : 192 Кбит/сек
    Аудио
    Формат : AC-3
    Формат/Информация : Audio Coding 3
    Параметр Endianness формата : Big
    Продолжительность : 1 ч. 48 м.
    Вид битрейта : Постоянный
    Битрейт : 192 Кбит/сек
    Каналы : 2 канала
    Расположение каналов : Front: L R
    Частота : 48, 0 КГц
    Частота кадров : 31, 250 кадров/сек (1536 SPF)
    Битовая глубина : 16 бит
    Метод сжатия : С потерями
    Размер потока : 149 Мбайт (100%)
    ServiceKind/String : Complete Main
    Общее
    Уникальный идентификатор : 211373051984181032985584683791132726669 (0x9F04F8120A85D4229BEEDC55A529158D)
    Полное имя : Broken.Arrow.1996.nnm_video\Broken.Arrow.1996.nnm_video.mkv
    Формат : Matroska
    Версия формата : Version 2
    Размер файла : 2, 73 Гбайт
    Продолжительность : 1 ч. 48 м.
    Общий поток : 3607 Кбит/сек
    Название фильма : Сломанная стрела (Broken Arrow) RG NNM Club Video
    Дата кодирования : UTC 2017-10-07 21: 38: 09
    Программа кодирования : mkvmerge v16.0.0 (\\'Protest\\') 64-bit
    Библиотека кодирования : libebml v1.3.5 + libmatroska v1.4.8
    Attachments : Лог кодирования.log
    Видео
    Идентификатор : 1
    Формат : AVC
    Формат/Информация : Advanced Video Codec
    Профиль формата : High@L4.1
    Настройки формата : CABAC/12 Ref Frames
    Параметр CABAC формата : Да
    Параметр RefFrames формата : 12 кадров
    Идентификатор кодека : V_MPEG4/ISO/AVC
    Продолжительность : 1 ч. 48 м.
    Битрейт : 2839 Кбит/сек
    Ширина : 1024 пикселя
    Высота : 432 пикселя
    Соотношение сторон : 2, 40: 1
    Режим частоты кадров : Постоянный
    Частота кадров : 23, 976 (24000/1001) кадра/сек
    Цветовое пространство : YUV
    Субдискретизация насыщенности : 4: 2: 0
    Битовая глубина : 8 бит
    Тип развёртки : Прогрессивная
    Бит/(Пиксели*Кадры) : 0.268
    Размер потока : 2, 10 Гбайт (77%)
    Заголовок : Сломанная стрела (Broken Arrow)
    Библиотека кодирования : x264 core 152 r2851 ba24899
    Настройки программы : cabac=1/ref=12/deblock=1: -1: -1/analyse=0x3: 0x133/me=umh/subme=11/psy=1/psy_rd=1.00: 0.15/mixed_ref=1/me_range=64/chroma_me=1/trellis=2/8x8dct=1/cqm=0/deadzone=21, 11/fast_pskip=0/chroma_qp_offset=-3/threads=6/lookahead_threads=1/sliced_threads=0/nr=0/decimate=0/interlaced=0/bluray_compat=0/constrained_intra=0/bframes=16/b_pyramid=2/b_adapt=2/b_bias=0/direct=3/weightb=1/open_gop=0/weightp=2/keyint=240/keyint_min=23/scenecut=40/intra_refresh=0/rc_lookahead=60/rc=2pass/mbtree=0/bitrate=2839/ratetol=1.0/qcomp=0.60/qpmin=0/qpmax=69/qpstep=4/cplxblur=20.0/qblur=0.5/vbv_maxrate=50000/vbv_bufsize=62500/nal_hrd=none/filler=0/ip_ratio=1.40/pb_ratio=1.30/aq=1: 1.00
    Язык : English
    Default : Да
    Forced : Нет
    Аудио #1
    Идентификатор : 2
    Формат : AC-3
    Формат/Информация : Audio Coding 3
    Параметр Endianness формата : Big
    Идентификатор кодека : A_AC3
    Продолжительность : 1 ч. 48 м.
    Вид битрейта : Постоянный
    Битрейт : 192 Кбит/сек
    Каналы : 2 канала
    Расположение каналов : Front: L R
    Частота : 48, 0 КГц
    Частота кадров : 31, 250 кадров/сек (1536 SPF)
    Битовая глубина : 16 бит
    Метод сжатия : С потерями
    Размер потока : 149 Мбайт (5%)
    Заголовок : Многоголосый \\'\\'R5\\'\\' (AC-3, Постоянный, 192 Кбит/сек, 2 канала, 48, 0 КГц, 16 бит)
    Язык : Russian
    ServiceKind/String : Complete Main
    Default : Да
    Forced : Нет
    Аудио #2
    Идентификатор : 3
    Формат : AC-3
    Формат/Информация : Audio Coding 3
    Параметр Endianness формата : Big
    Идентификатор кодека : A_AC3
    Продолжительность : 1 ч. 48 м.
    Вид битрейта : Постоянный
    Битрейт : 192 Кбит/сек
    Каналы : 2 канала
    Расположение каналов : Front: L R
    Частота : 48, 0 КГц
    Частота кадров : 31, 250 кадров/сек (1536 SPF)
    Битовая глубина : 16 бит
    Метод сжатия : С потерями
    Размер потока : 149 Мбайт (5%)
    Заголовок : Многоголосый \\'\\'Киномания\\'\\' (AC-3, Постоянный, 192 Кбит/сек, 2 канала, 48, 0 КГц, 16 бит)
    Язык : Russian
    ServiceKind/String : Complete Main
    Default : Нет
    Forced : Нет
    Аудио #3
    Идентификатор : 4
    Формат : AC-3
    Формат/Информация : Audio Coding 3
    Параметр Endianness формата : Big
    Идентификатор кодека : A_AC3
    Продолжительность : 1 ч. 48 м.
    Вид битрейта : Постоянный
    Битрейт : 192 Кбит/сек
    Каналы : 2 канала
    Расположение каналов : Front: L R
    Частота : 48, 0 КГц
    Частота кадров : 31, 250 кадров/сек (1536 SPF)
    Битовая глубина : 16 бит
    Метод сжатия : С потерями
    Размер потока : 149 Мбайт (5%)
    Заголовок : Многоголосый \\'\\'ОРТ\\'\\' (AC-3, Постоянный, 192 Кбит/сек, 2 канала, 48, 0 КГц, 16 бит)
    Язык : Russian
    ServiceKind/String : Complete Main
    Default : Нет
    Forced : Нет
    Аудио #4
    Идентификатор : 5
    Формат : AC-3
    Формат/Информация : Audio Coding 3
    Параметр Endianness формата : Big
    Идентификатор кодека : A_AC3
    Продолжительность : 1 ч. 48 м.
    Вид битрейта : Постоянный
    Битрейт : 192 Кбит/сек
    Каналы : 2 канала
    Расположение каналов : Front: L R
    Частота : 48, 0 КГц
    Частота кадров : 31, 250 кадров/сек (1536 SPF)
    Битовая глубина : 16 бит
    Метод сжатия : С потерями
    Размер потока : 149 Мбайт (5%)
    Заголовок : Многоголосый \\'\\'Премьер Видео Фильм\\'\\' (AC-3, Постоянный, 192 Кбит/сек, 2 канала, 48, 0 КГц, 16 бит)
    Язык : Russian
    ServiceKind/String : Complete Main
    Default : Нет
    Forced : Нет
    Текст #1
    Идентификатор : 6
    Формат : UTF-8
    Идентификатор кодека : S_TEXT/UTF8
    Идентификатор кодека/Информация : UTF-8 Plain Text
    Заголовок : Русские
    Язык : Russian
    Default : Да
    Forced : Нет
    Текст #2
    Идентификатор : 7
    Формат : UTF-8
    Идентификатор кодека : S_TEXT/UTF8
    Идентификатор кодека/Информация : UTF-8 Plain Text
    Заголовок : Английские
    Язык : English
    Default : Нет
    Forced : Нет
    Меню
    00: 00: 00.000 : en: 00: 00: 00.000
    00: 05: 28.286 : en: 00: 05: 28.286
    00: 13: 03.157 : en: 00: 13: 03.157
    00: 17: 41.977 : en: 00: 17: 41.977
    00: 20: 00.907 : en: 00: 20: 00.907
    00: 22: 59.336 : en: 00: 22: 59.336
    00: 26: 38.930 : en: 00: 26: 38.930
    00: 33: 55.240 : en: 00: 33: 55.240
    00: 42: 54.655 : en: 00: 42: 54.655
    00: 50: 53.007 : en: 00: 50: 53.007
    00: 53: 59.402 : en: 00: 53: 59.402
    01: 04: 42.711 : en: 01: 04: 42.711
    01: 08: 48.164 : en: 01: 08: 48.164
    01: 11: 17.146 : en: 01: 11: 17.146
    01: 14: 29.881 : en: 01: 14: 29.881
    01: 18: 00.509 : en: 01: 18: 00.509
    01: 20: 56.184 : en: 01: 20: 56.184
    01: 26: 34.189 : en: 01: 26: 34.189
    01: 28: 49.532 : en: 01: 28: 49.532
    01: 30: 31.175 : en: 01: 30: 31.175
    01: 33: 05.578 : en: 01: 33: 05.578
    01: 42: 13.417 : en: 01: 42: 13.417

    Скриншоты для ознакомления



    Все одноименные релизы в Клубе
    Время раздачи: 24/7 до первых 10 скачавших, потом ухожу с раздачи

    Онлайн видео Сломанная стрела



    Сломанная стрела/Broken Arrow (1996) BDRip [H.264]
    загрузка...
    Рейтинг →
     (голосов: 1, оценка 4/5, голосовать можно 1 раз )

    Другие торренты по теме:

  • Сломанная стрела / Broken Arrow (1996) BDRip [H.264] скачать через торрент бесплатно
  • Сломанная стрела / Broken Arrow (1950) BDRip [H.264] скачать через торрент бесплатно
  • Сломанная стрела / Broken Arrow (1996) BDRip [H.264 / 1080p] скачать через торрент бесплатно
  • Сломанная стрела / Broken Arrow (1996) BDRip [H.265 / 1080p-LQ] [MVO]
  • Сломанная стрела / Broken Arrow (1996) BDRip [H.264 / 720p]


    • Комментарии (0):

      Информация

      Информация

        Посетители, находящиеся в группе Гости, не могут оставлять комментарии в данной новости.

        ↓ Меню




        ↓ Опрос

        Вы добавили сайт в закладки?
        Да
        Нет


        Top 10 за месяц (Фильмы)