.
Авторизация | Регистрация
Хочешь лучшие торренты? Добавь свой email!
Добавить

Торрент скачать бесплатно

» » Вурдалаки (2016) BDRip торрент скачать бесплатно




    Вурдалаки (2016) BDRip торрент скачать бесплатно

    Опубликовал: Админ | Дата: 8-10-2017, 05:00 | Просмотров: 1

    Производство: Россия/Горад, ВВП Альянс
    Жанр: Триллер, фэнтези
    Режиссер: Сергей Гинзбург

    Актеры
    Михаил Пореченков, Константин Крюков, Аглая Шиловская, Андрей Руденский, Михаил Жигалов, Игорь Хрипунов, Анатолий Гущин, Константин Милованов, Анна Арланова, Юлия Ауг

    Описание

    Россия, 18 век. На краю Руси, в Карпатских горах, стоит Спасский монастырь, куда был сослан духовник императрицы Елизаветы монах Лавр. Какие тайны он унес с собой из столичного Петербурга, никто не ведал. Да и край, в который он был сослан, издревле считался неспокойным, о нем слагали легенды и рассказывали их только шепотом. Говорили мол, что в тех краях живет нечистая сила, оставшаяся там еще со времен набегов турецких…

    Возраст: 12+ (зрителям, достигшим 12 лет)
    Продолжительность: 01: 21: 54
    Качество видео: BDRip
    Перевод: Не требуется (язык русский)
    Субтитры: Отсутствуют
    Видео: MPEG4, XviD, 720x304 (2.35: 1), 23.976 fps, 1 932 Kbps (0.368 bit/pixel)
    Аудио: AC-3, 48.0 KHz, 6 ch, 448 Kbps, CBR

    Общее
    Полное имя : D: \NNM\Вурдалаки\Vurdalaki 2016 BDRip.avi
    Формат : AVI
    Формат/Информация : Audio Video Interleave
    Размер файла : 1, 37 Гбайт
    Продолжительность : 1 ч. 21 м.
    Общий поток : 2389 Кбит/сек
    Программа кодирования : VirtualDubMod 1.5.10.2 (build 2540/release)
    Библиотека кодирования : VirtualDubMod build 2540/release
    Видео
    Идентификатор : 0
    Формат : MPEG-4 Visual
    Профиль формата : Advanced Simple@L5
    Параметр BVOP формата : 2
    Параметр QPel формата : Нет
    Параметр GMC формата : Без точки перехода
    Параметр матрицы формата : Default (MPEG)
    Идентификатор кодека : XVID
    Идентификатор кодека/Подсказка : XviD
    Продолжительность : 1 ч. 21 м.
    Битрейт : 1932 Кбит/сек
    Ширина : 720 пикселей
    Высота : 304 пикселя
    Соотношение сторон : 2, 35: 1
    Частота кадров : 23, 976 (24000/1001) кадра/сек
    Цветовое пространство : YUV
    Субдискретизация насыщенности : 4: 2: 0
    Битовая глубина : 8 бит
    Тип развёртки : Прогрессивная
    Метод сжатия : С потерями
    Бит/(Пиксели*Кадры) : 0.368
    Размер потока : 1, 11 Гбайт (81%)
    Библиотека кодирования : XviD 1.2.1 (UTC 2008-12-04)
    Аудио
    Идентификатор : 1
    Формат : AC-3
    Формат/Информация : Audio Coding 3
    Расширение режима : CM (complete main)
    Параметр Endianness формата : Big
    Идентификатор кодека : 2000
    Продолжительность : 1 ч. 21 м.
    Вид битрейта : Постоянный
    Битрейт : 448 Кбит/сек
    Каналы : 6 каналов
    Расположение каналов : Front: L C R, Side: L R, LFE
    Частота : 48, 0 КГц
    Частота кадров : 31, 250 кадров/сек (1536 spf)
    Битовая глубина : 16 бит
    Метод сжатия : С потерями
    Размер потока : 262 Мбайт (19%)
    Выравнивание : Разделение по промежуткам
    Продолжительность промежутка : 42 мс. (1, 00 видеокадр)
    Время предзагрузки промежутка : 500 мс.

    Скриншоты для ознакомления



    Все релизы фильма Вурдалаки на NNM-Club
    Время раздачи: Круглосуточно до 10 скачавших

    Вурдалаки (2016) BDRip
    загрузка...
    Рейтинг →
     (голосов: 1, оценка 3/5, голосовать можно 1 раз )

    Другие торренты по теме:

  • Вурдалаки (2016) BDRip [H.264 / 720p]
  • Вурдалаки (2016) BDRip [H.264]
  • Вурдалаки (2016) BDRip [H.264 / 1080p-LQ]
  • Вурдалаки (2016) BDRip 3D [H.264 / 1080p] [Вертикальная анаморфная стереопара]


    • Комментарии (0):

      Информация

      Информация

        Посетители, находящиеся в группе Гости, не могут оставлять комментарии в данной новости.

        ↓ Меню




        ↓ Опрос

        Вы добавили сайт в закладки?
        Да
        Нет


        Top 10 за месяц (Фильмы)