.
Авторизация | Регистрация
Хочешь лучшие торренты? Добавь свой email!
Добавить

Торрент скачать бесплатно

» » Ошибка резидента (1968) DVD9 [Реставрация] торрент скачать бесплатно




    Ошибка резидента (1968) DVD9 [Реставрация] торрент скачать бесплатно

    Опубликовал: Админ | Дата: 8-10-2017, 05:00 | Просмотров: 0

    Производство: СССР, Студия Горького
    Жанр: Детектив
    Режиссер: Вениамин Дорман

    Актеры
    Георгий Жжёнов, Михаил Ножкин, Олег Жаков, Элеонора Шашкова, Ефим Копелян, Николай Прокопович, Владимир Гусев, Ирина Мирошниченко, Вадим Захарченко, Николай Граббе, Николай Бриллинг, Ростислав Плятт

    Описание

    Первый фильм тетралогии о судьбе опытного разведчика, сына русского эмигранта графа Тульева. Резидент должен добыть сведения о разработках в атомной промышленности, но чекисты нападают на его след — и он допускает роковую ошибку…

    Возраст: 12+ (зрителям, достигшим 12 лет)
    Релиз от: smithland
    Продолжительность: 01: 07: 51 + 01: 06: 07
    Качество видео: DVD9
    Видео: MPEG-2, 720x480@853x483, ~5849 kb/s
    Аудио: AC3, 2 ch, 160 kbps

    General
    Complete name : Ошибка резидента (1 серия)
    Format : MPEG-PS
    File size : 2.81 GiB
    Duration : 1 h 7 min
    Overall bit rate mode : Variable
    Overall bit rate : 5 937 kb/s
    Video
    ID : 224 (0xE0)
    Format : MPEG Video
    Format version : Version 2
    Format profile : Main@Main
    Format settings, BVOP : Yes
    Format settings, Matrix : Default
    Format settings, GOP : M=3, N=12
    Duration : 1 h 7 min
    Bit rate mode : Variable
    Bit rate : 5 658 kb/s
    Width : 720 pixels
    Height : 480 pixels
    Display aspect ratio : 16: 9
    Frame rate : 29.970 (30000/1001) FPS
    Standard : Component
    Color space : YUV
    Chroma subsampling : 4: 2: 0
    Bit depth : 8 bits
    Scan type : Progressive
    Compression mode : Lossy
    Bits/(Pixel*Frame) : 0.546
    Time code of first frame : 00: 00: 00: 00
    Time code source : Group of pictures t_head
    GOP, Open/Closed : Closed
    Stream size : 2.68 GiB (95%)
    Color primaries : BT.601 NTSC
    Transfer characteristics : BT.601
    Matrix coefficients : BT.601
    Audio
    ID : 189 (0xBD)-128 (0x80)
    Format : AC-3
    Format/Info : Audio Coding 3
    Mode extension : CM (complete main)
    Format settings, Endianness : Big
    Muxing mode : DVD-Video
    Duration : 1 h 7 min
    Bit rate mode : Constant
    Bit rate : 160 kb/s
    Channel(s) : 2 channels
    Channel positions : Front: L R
    Sampling rate : 48.0 kHz
    Frame rate : 31.250 FPS (1536 spf)
    Bit depth : 16 bits
    Compression mode : Lossy
    Delay relative to video : -34 ms
    Stream size : 77.7 MiB (3%)
    General
    Complete name : Ошибка резидента (2 серия)
    Format : MPEG-PS
    File size : 2.83 GiB
    Duration : 1 h 6 min
    Overall bit rate mode : Variable
    Overall bit rate : 6 131 kb/s
    Video
    ID : 224 (0xE0)
    Format : MPEG Video
    Format version : Version 2
    Format profile : Main@Main
    Format settings, BVOP : Yes
    Format settings, Matrix : Default
    Format settings, GOP : M=3, N=12
    Duration : 1 h 6 min
    Bit rate mode : Variable
    Bit rate : 5 849 kb/s
    Maximum bit rate : 9 200 kb/s
    Width : 720 pixels
    Height : 480 pixels
    Display aspect ratio : 16: 9
    Frame rate : 29.970 (30000/1001) FPS
    Standard : Component
    Color space : YUV
    Chroma subsampling : 4: 2: 0
    Bit depth : 8 bits
    Scan type : Progressive
    Compression mode : Lossy
    Bits/(Pixel*Frame) : 0.565
    Time code of first frame : 00: 00: 00: 00
    Time code source : Group of pictures t_head
    GOP, Open/Closed : Closed
    Stream size : 2.70 GiB (95%)
    Color primaries : BT.601 NTSC
    Transfer characteristics : BT.601
    Matrix coefficients : BT.601
    Audio
    ID : 189 (0xBD)-128 (0x80)
    Format : AC-3
    Format/Info : Audio Coding 3
    Mode extension : CM (complete main)
    Format settings, Endianness : Big
    Muxing mode : DVD-Video
    Duration : 1 h 6 min
    Bit rate mode : Constant
    Bit rate : 160 kb/s
    Channel(s) : 2 channels
    Channel positions : Front: L R
    Sampling rate : 48.0 kHz
    Frame rate : 31.250 FPS (1536 spf)
    Bit depth : 16 bits
    Compression mode : Lossy
    Delay relative to video : -34 ms
    Stream size : 75.7 MiB (3%)

    Скриншоты для ознакомления


    Собственная реставрация.
    Произведена работа по очистке и коррекции видео.


    Все одноименные релизы в Клубе
    Время раздачи: 12: 00-22: 00 (до появления первых 3-5 скачавших)

    Ошибка резидента (1968) DVD9 [Реставрация]
    загрузка...
    Рейтинг →
     (голосов: 1, оценка 4/5, голосовать можно 1 раз )

    Другие торренты по теме:

  • Ошибка времени / Time Lapse (2014) WEB-DL [H.264 / 720p-LQ] скачать через торрент бесплатно
  • Ошибка времени / Time Lapse (2014) WEB-DL [720p] ATV скачать через торрент бесплатно
  • Ошибка времени / Time Lapse (2014) WEB-DLRip [H.264] скачать через торрент бесплатно
  • Ошибка инженера Кочина (1939) SATRip [H.264] скачать через торрент бесплатно
  • Ошибка времени / Time Lapse (2014) BDRip [576p] iPad скачать через торрент бесплатно
  • Ошибка времени / Time Lapse (2014) BDRip [1080p] ATV скачать через торрент бесплатно
  • Ошибка времени / Time Lapse (2014) HDRip [H.264] [MP4|480x266] скачать через торрент бесплатно
  • Дарья Дезомбре | Ошибка Творца (2015) [MP3] скачать через торрент бесплатно


    • Комментарии (0):

      Информация

      Информация

        Посетители, находящиеся в группе Гости, не могут оставлять комментарии в данной новости.

        ↓ Меню




        ↓ Опрос

        Вы добавили сайт в закладки?
        Да
        Нет


        Top 10 за месяц (Фильмы)