.
Авторизация | Регистрация
Хочешь лучшие торренты? Добавь свой email!
Добавить

Торрент скачать бесплатно

» » Отмель / The Shallows (2016) UHD BDRip [H.265 / 2160p] [4K, HDR, 10-bit] торрент скачать бесплатно




    Отмель / The Shallows (2016) UHD BDRip [H.265 / 2160p] [4K, HDR, 10-bit] торрент скачать бесплатно

    Опубликовал: Админ | Дата: 8-10-2017, 05:00 | Просмотров: 0

    Производство: США/Columbia Pictures, Ombra Films, Weimaraner Republic Pictures
    Жанр: ужасы, триллер, драма
    Режиссер: Хауме Кольет-Серра
    Продюсер: Линн Харрис, Матти Лешем, Хауме Кольет-Серра

    Актеры
    Блейк Лайвли, Оскар Хаэнада, Бретт Каллен, Седона Ледже, Пабло Кальва, Диего Эспехель, Джанелл Бэйли, Ава Дин, Челси Муди, Салли Сигалл

    Описание

    Бескрайний океан, безлюдный пляж и идеальная погода для серфингистов в поисках хорошей волны. Казалось бы, ничто не предвещает беды для очаровательной любительницы серфинга в одиночку. Разве что свидание тет-а-тет с гигантской акулой, которая загонит спортсменку на песчаную отмель и не отступит до тех пор, пока не получит своё.

    Возраст: 16+ (зрителям, достигшим 16 лет)
    Рейтинг MPAA: PG-13 (детям до 13 лет просмотр нежелателен)

    Релиз от: BLUEBIRD
    Продолжительность: 01: 26: 16
    Качество: UHD BDRip 2160p (HDR)
    Перевод: Дублированный (Лицензия UHD Blu-ray), Авторский (одноголосый, закадровый) (В. Дохалов)
    Субтитры: Русские (full, forced), Английские (full, forced)
    Видео: HEVC/H.265, 3840x1604, (2.40: 1), 14.7 Mb/s, 23, 976 fps
    Аудио: AC3, 6 ch, 640 kbps - Русский, Дубляж
    Аудио: AC3, 6 ch, 640 kbps - Русский, В. Дохалов
    Аудио: AC3, 6 ch, 640 kbps - Английский
    Исходный диск на Blu-ray.com
    Просмотр 4K HDR-контента на ПК
    General
    Unique ID : 239508415659705856416165536544375714352 (0xB42FA4995DA8A8019EE659E3EF5C3230)
    Complete name : TH_SHLLWS_2016_UHD-BDRip_4K_HDR_10bit_BT2020_2160P_iS -BLUEBIRD.mkv
    Format : Matroska
    Format version : Version 4/Version 2
    File size : 10.0 GiB
    Duration : 1 h 26 min
    Overall bit rate : 16.7 Mb/s
    Movie name : The Shallows/Отмель // США, 2016 год, фильм // HEVC HDR10 UHD-BDRip 2160p (iS)
    Encoded date : UTC 2017-09-30 22: 16: 32
    Writing application : mkvmerge v16.0.0 (\\'Protest\\') 64-bit
    Writing library : libebml v1.3.5 + libmatroska v1.4.8
    Attachments : poster.jpg/poster_rus.jpg/x265_log.txt
    Video
    ID : 1
    Format : HEVC
    Format/Info : High Efficiency Video Coding
    Format profile : Main10@L5.1@High
    Codec ID : V_MPEGH/ISO/HEVC
    Duration : 1 h 26 min
    Bit rate : 14.7 Mb/s
    Width : 3 840 pixels
    Height : 1 604 pixels
    Display aspect ratio : 2.40: 1
    Frame rate mode : Constant
    Frame rate : 23.976 (24000/1001) FPS
    Color space : YUV
    Chroma subsampling : 4: 2: 0
    Bit depth : 10 bits
    Bits/(Pixel*Frame) : 0.100
    Stream size : 8.87 GiB (88%)
    Writing library : x265 2.5+17-f8ae7afc1f61: WindowsGCC 6.2.164 bit 10bit
    Encoding settings : cpuid=1173503/frame-threads=3/numa-pools=8/wpp/no-pmode/no-pme/no-psnr/no-ssim/log-level=2/input-csp=1/input-res=3840x1604/interlace=0/total-frames=117060/level-idc=51/high-tier=1/uhd-bd=0/ref=4/no-allow-non-conformance/repeat-t_heads/annexb/no-aud/no-hrd/info/hash=0/no-temporal-layers/no-open-gop/min-keyint=23/keyint=250/bframes=4/b-adapt=2/b-pyramid/bframe-bias=0/rc-lookahead=96/lookahead-slices=4/scenecut=40/no-intra-refresh/ctu=64/min-cu-size=8/no-rect/no-amp/max-tu-size=32/tu-inter-depth=1/tu-intra-depth=1/limit-tu=0/rdoq-level=2/dynamic-rd=0.00/no-ssim-rd/signhide/no-tskip/nr-intra=0/nr-inter=0/no-constrained-intra/no-strong-intra-smoothing/max-merge=5/limit-refs=3/limit-modes/me=3/subme=7/merange=57/temporal-mvp/weightp/no-weightb/no-analyze-src-pics/deblock=0: 0/no-sao/no-sao-non-deblock/rd=4/no-early-skip/no-rskip/no-fast-intra/no-tskip-fast/no-cu-lossless/no-b-intra/no-splitrd-skip/rdpenalty=0/psy-rd=2.00/psy-rdoq=3.00/no-rd-refine/analysis-reuse-mode=0/no-lossless/cbqpoffs=0/crqpoffs=0/rc=crf/crf=20.0/qcomp=0.60/qpstep=4/stats-write=0/stats-read=0/vbv-maxrate=160000/vbv-bufsize=160000/vbv-init=0.9/crf-max=0.0/crf-min=0.0/ipratio=1.40/pbratio=1.30/aq-mode=0/aq-strength=0.00/no-cutree/zone-count=0/no-strict-cbr/qg-size=64/no-rc-grain/qpmax=69/qpmin=0/no-const-vbv/sar=0/overscan=0/videoformat=5/range=0/colorprim=9/transfer=16/colormatrix=9/chromaloc=0/display-window=0/master-display=G(13250, 34500)B(7500, 3000)R(34000, 16000)WP(15635, 16450)L(40000000, 50)/max-cll=1933, 709/min-luma=0/max-luma=1023/log2-max-poc-lsb=8/vui-timing-info/vui-hrd-info/slices=1/opt-qp-pps/opt-ref-list-length-pps/no-multi-pass-opt-rps/scenecut-bias=0.05/no-opt-cu-delta-qp/no-aq-motion/hdr/no-hdr-opt/no-dhdr10-opt/analysis-reuse-level=5/scale-factor=0/refine-intra=0/refine-inter=0/refine-mv=0/no-limit-sao/ctu-info=0
    Default : Yes
    Forced : No
    Color range : Limited
    Color primaries : BT.2020
    Transfer characteristics : SMPTE ST 2084
    Matrix coefficients : BT.2020 non-constant
    Mastering display color primaries : R: x=0.680000 y=0.320000, G: x=0.265000 y=0.690000, B: x=0.150000 y=0.060000, White point: x=0.312700 y=0.329000
    Mastering display luminance : min: 0.0050 cd/m2, max: 4000.0000 cd/m2
    Maximum Content Light Level : 1933 cd/m2
    Maximum Frame-Average Light Level : 709 cd/m2
    Audio #1
    ID : 2
    Format : AC-3
    Format/Info : Audio Coding 3
    Format settings, Endianness : Big
    Codec ID : A_AC3
    Duration : 1 h 26 min
    Bit rate mode : Constant
    Bit rate : 640 kb/s
    Channel(s) : 6 channels
    Channel positions : Front: L C R, Side: L R, LFE
    Sampling rate : 48.0 kHz
    Frame rate : 31.250 FPS (1536 spf)
    Bit depth : 16 bits
    Compression mode : Lossy
    Stream size : 395 MiB (4%)
    Title : UHD BD
    Language : Russian
    Service kind : Complete Main
    Default : Yes
    Forced : No
    Audio #2
    ID : 3
    Format : AC-3
    Format/Info : Audio Coding 3
    Format settings, Endianness : Big
    Codec ID : A_AC3
    Duration : 1 h 26 min
    Bit rate mode : Constant
    Bit rate : 640 kb/s
    Channel(s) : 6 channels
    Channel positions : Front: L C R, Side: L R, LFE
    Sampling rate : 48.0 kHz
    Frame rate : 31.250 FPS (1536 spf)
    Bit depth : 16 bits
    Compression mode : Lossy
    Stream size : 395 MiB (4%)
    Title : AVO В. Дохалов
    Language : Russian
    Service kind : Complete Main
    Default : No
    Forced : No
    Audio #3
    ID : 4
    Format : AC-3
    Format/Info : Audio Coding 3
    Format settings, Endianness : Big
    Codec ID : A_AC3
    Duration : 1 h 26 min
    Bit rate mode : Constant
    Bit rate : 640 kb/s
    Channel(s) : 6 channels
    Channel positions : Front: L C R, Side: L R, LFE
    Sampling rate : 48.0 kHz
    Frame rate : 31.250 FPS (1536 spf)
    Bit depth : 16 bits
    Compression mode : Lossy
    Stream size : 395 MiB (4%)
    Title : UHD BD
    Language : English
    Service kind : Complete Main
    Default : No
    Forced : No
    Text #1
    ID : 5
    Format : UTF-8
    Codec ID : S_TEXT/UTF8
    Codec ID/Info : UTF-8 Plain Text
    Duration : 1 h 19 min
    Bit rate : 27 b/s
    Count of elements : 460
    Stream size : 15.9 KiB (0%)
    Language : Russian
    Default : Yes
    Forced : No
    Text #2
    ID : 6
    Format : UTF-8
    Codec ID : S_TEXT/UTF8
    Codec ID/Info : UTF-8 Plain Text
    Duration : 1 h 19 min
    Bit rate : 1 b/s
    Count of elements : 36
    Stream size : 1.00 KiB (0%)
    Title : forced
    Language : Russian
    Default : No
    Forced : Yes
    Text #3
    ID : 7
    Format : UTF-8
    Codec ID : S_TEXT/UTF8
    Codec ID/Info : UTF-8 Plain Text
    Duration : 1 h 17 min
    Bit rate : 18 b/s
    Count of elements : 446
    Stream size : 10.3 KiB (0%)
    Language : English
    Default : No
    Forced : No
    Text #4
    ID : 8
    Format : UTF-8
    Codec ID : S_TEXT/UTF8
    Codec ID/Info : UTF-8 Plain Text
    Duration : 4 min 19 s
    Bit rate : 6 b/s
    Count of elements : 13
    Stream size : 200 Bytes (0%)
    Title : forced
    Language : English
    Default : No
    Forced : No
    Menu
    00: 00: 00.000 : en: Chapter 1
    00: 08: 08.697 : en: Chapter 2
    00: 15: 09.409 : en: Chapter 3
    00: 20: 30.938 : en: Chapter 4
    00: 25: 44.876 : en: Chapter 5
    00: 30: 06.053 : en: Chapter 6
    00: 36: 03.118 : en: Chapter 7
    00: 40: 38.685 : en: Chapter 8
    00: 45: 40.611 : en: Chapter 9
    00: 49: 31.216 : en: Chapter 10
    00: 55: 56.976 : en: Chapter 11
    01: 01: 20.507 : en: Chapter 12
    01: 06: 21.558 : en: Chapter 13
    01: 09: 56.439 : en: Chapter 14
    01: 13: 37.701 : en: Chapter 15
    01: 19: 00.482 : en: Chapter 16

    Скриншоты для ознакомления


    Релизы фильма Отмель/The Shallows на NNM Club
    Время раздачи: с 9: 00 до 23: 00
    .dlother {background: url(\\'http://assets.nnm-club.ws/forum/images/dlother.png\\');width: 200px;height: 50px;overflow: hidden;margin: 0;-webkit-border-radius: 5px;-moz-border-radius: 5px;border-radius: 5px} .dlother a, .dlother a: hover {color: rgba(255, 255, 255, 0.6);font-size: 18px;font-family: Arial;display: block;padding: 14px;text-decoration: none;text-align: left;font-weight: normal;margin: 0} .dlother a span {color: #fff}
    NNM-Club.name_TH_SHLLWS_2016_UHD-BDRip_4K_HDR_10bit_BT2020_2160P_iS -BLUEBIRD.torrent
    Торрент: Золотая раздача Зарегистрирован
    Подписаться на изменения
    Скачать
    50, 3 KB

    Примагнититься
    Зарегистрирован: 06 Окт 2017 16: 08: 00
    Размер: 10 GB (Вам доступно: 50, 24 TB)
    Рейтинг: (Голосов: 9 )Супер Хорошо Средне Так себе Убил время
    Поблагодарили: 43 Спасибо (список )
    Проверка: Оформление проверено модератором 07 Окт 2017 12: 44: 52
    Как cкачать · Как раздать · Правильно оформить · Поднять ратио!
    Вернуться к началу
    Посмотреть профильОтправить личное сообщение
    SanLex
    Стаж: 2 года 11 мес.
    Сообщений: 624
    Ratio: 35, 377
    Поблагодарили: 24306
    100%
    Новое сообщение07 Окт 2017 14: 22: 20 Заголовок сообщения:
    Ответить с цитатой

    Уже писал, напишу еще раз, очень хороший фильм и не только от себя, знаю из своего круга, кому тоже нравится данный фильм, 7/10.: клево:
    Релизеру добро!: да:

    Онлайн видео Отмель



    Отмель/The Shallows (2016) UHD BDRip [H.265/2160p] [4K, HDR, 10-bit]
    загрузка...
    Рейтинг →
     (голосов: 1, оценка 3/5, голосовать можно 1 раз )

    Другие торренты по теме:

  • Отмель / The Shallows (2016) TS
  • Отмель / The Shallows (2016) TS
  • Отмель / The Shallows (2016) TS
  • Отмель / The Shallows (2016) WEB-DL [H.264 / 720p-LQ]
  • Отмель / The Shallows (2016) WEB-DL [H.264 / 1080p-LQ]
  • Отмель / The Shallows (2016) WEB-DLRip
  • Отмель / The Shallows (2016) WEB-DLRip [H.264] [MP4|1024x428]
  • Отмель / he Shallows (2016) WEB-DLRip [H.264 / 720p-LQ] [hand made 60fps]


    • Комментарии (0):

      Информация

      Информация

        Посетители, находящиеся в группе Гости, не могут оставлять комментарии в данной новости.

        ↓ Меню




        ↓ Опрос

        Вы добавили сайт в закладки?
        Да
        Нет


        Top 10 за месяц (Фильмы)