.
Авторизация | Регистрация
Хочешь лучшие торренты? Добавь свой email!
Добавить

Торрент скачать бесплатно

» » Марсианин / The Martian (2015) UHD BDRip [H.265 / 2160p] [Расширенная версия] [4K, HDR, 10-bit] торрент скачать бесплатно




    Марсианин / The Martian (2015) UHD BDRip [H.265 / 2160p] [Расширенная версия] [4K, HDR, 10-bit] торрент скачать бесплатно

    Опубликовал: Админ | Дата: 8-10-2017, 05:00 | Просмотров: 0

    Производство: США, Великобритания/20th Century Fox Film Corporation, Genre Films, International Traders
    Жанр: фантастика, приключения
    Режиссер: Ридли Скотт
    Продюсер: Марк Хаффам, Саймон Кинберг, Майкл Шефер

    Актеры
    Мэтт Дэймон, Джессика Честейн, Чиветель Эджиофор, Кристен Уиг, Джефф Дэниелс, Майкл Пенья, Шон Бин, Кейт Мара, Себастьян Стэн, Аксель Хенни

    Описание

    Марсианская миссия Арес-3 в процессе работы была вынуждена экстренно покинуть планету из-за надвигающейся песчаной бури. Инженер и биолог Марк Уотни получил повреждение скафандра во время песчаной бури. Сотрудники миссии, посчитав его погибшим, эвакуировались с планеты, оставив Марка одного.
    Очнувшись, Уотни обнаруживает, что связь с Землёй отсутствует, но при этом полностью функционирует жилой модуль. Главный герой начинает искать способ продержаться на имеющихся запасах еды, витаминов, воды и воздуха ещё 4 года до прилёта следующей миссии Арес-4.

    Возраст: 16+ (зрителям, достигшим 16 лет)
    Рейтинг MPAA: PG-13 (детям до 13 лет просмотр нежелателен)

    Релиз от: BLUEBIRD
    Продолжительность: 02: 31: 20
    Качество: UHD BDRip 2160p (HDR)
    Перевод: Дублированный (Лицензия BD EUR), Авторский (одноголосый, закадровый) (А. Гаврилов)
    Субтитры: Русские (full, forced), Английские (full, SDH)
    Видео: HEVC/H.265, 3840x1600, (2.40: 1), 13.0 Mb/s, 23.976 fps
    Аудио: AC3, 6 ch, 640 kbps - Русский, Дубляж
    Аудио: AC3, 6 ch, 640 kbps - Русский, А. Гаврилов
    Аудио: AC3, 6 ch, 640 kbps - Английский
    Исходный диск на Blu-ray.com
    Просмотр 4K HDR-контента на ПК
    * - озвучка расширенных сцен - DVO Omskbird records
    † - перевод китайской речи - А. Гаврилов
    # русские дорожки собраны заново и аналогов в сети не имеют (tnx iS)
    Complete name : THE_MARTIAN_(2015)_UHD-BDRip_4K_HDR_10bit_BT2020_2160P_iS -BLUEBIRD.mkv
    Format : Matroska
    Format version : Version 4/Version 2
    File size : 15.8 GiB
    Duration : 2 h 31 min
    Overall bit rate : 14.9 Mb/s
    Movie name : The Martian/Марсианин // США, 2015 год, фильм, расширенная редакция // HEVC HDR10 UHD-BDRip 2160p (iS)
    Encoded date : UTC 2017-09-26 17: 50: 43
    Writing application : mkvmerge v15.0.0 (\\'Duel with the Devil\\') 64-bit
    Writing library : libebml v1.3.5 + libmatroska v1.4.5
    Attachments : poster.jpg
    Video
    ID : 1
    Format : HEVC
    Format/Info : High Efficiency Video Coding
    Format profile : Main10@L5.1@High
    Codec ID : V_MPEGH/ISO/HEVC
    Duration : 2 h 31 min
    Bit rate : 13.0 Mb/s
    Width : 3 840 pixels
    Height : 1 600 pixels
    Display aspect ratio : 2.40: 1
    Frame rate mode : Constant
    Frame rate : 23.976 (24000/1001) FPS
    Color space : YUV
    Chroma subsampling : 4: 2: 0
    Bit depth : 10 bits
    Bits/(Pixel*Frame) : 0.088
    Stream size : 13.7 GiB (87%)
    Writing library : x265 2.5+16-bac53338585c: WindowsGCC 6.2.164 bit 10bit
    Encoding settings : cpuid=1173503/frame-threads=3/numa-pools=8/wpp/no-pmode/no-pme/no-psnr/no-ssim/log-level=2/input-csp=1/input-res=3840x1600/interlace=0/total-frames=209760/level-idc=51/high-tier=1/uhd-bd=0/ref=4/no-allow-non-conformance/repeat-t_heads/annexb/no-aud/no-hrd/info/hash=0/no-temporal-layers/no-open-gop/min-keyint=23/keyint=250/bframes=4/b-adapt=2/b-pyramid/bframe-bias=0/rc-lookahead=96/lookahead-slices=4/scenecut=40/no-intra-refresh/ctu=64/min-cu-size=8/no-rect/no-amp/max-tu-size=32/tu-inter-depth=1/tu-intra-depth=1/limit-tu=0/rdoq-level=2/dynamic-rd=0.00/no-ssim-rd/signhide/no-tskip/nr-intra=0/nr-inter=0/no-constrained-intra/no-strong-intra-smoothing/max-merge=5/limit-refs=3/limit-modes/me=3/subme=7/merange=57/temporal-mvp/weightp/no-weightb/no-analyze-src-pics/deblock=0: 0/no-sao/no-sao-non-deblock/rd=4/no-early-skip/no-rskip/no-fast-intra/no-tskip-fast/no-cu-lossless/no-b-intra/no-splitrd-skip/rdpenalty=0/psy-rd=2.00/psy-rdoq=5.00/no-rd-refine/analysis-reuse-mode=0/no-lossless/cbqpoffs=0/crqpoffs=0/rc=crf/crf=21.0/qcomp=0.60/qpstep=4/stats-write=0/stats-read=0/vbv-maxrate=160000/vbv-bufsize=160000/vbv-init=0.9/crf-max=0.0/crf-min=0.0/ipratio=1.20/pbratio=1.10/aq-mode=0/aq-strength=0.00/no-cutree/zone-count=0/no-strict-cbr/qg-size=64/no-rc-grain/qpmax=69/qpmin=0/no-const-vbv/sar=0/overscan=0/videoformat=5/range=0/colorprim=9/transfer=16/colormatrix=9/chromaloc=0/display-window=0/master-display=G(13250, 34500)B(7500, 3000)R(34000, 16000)WP(15635, 16450)L(10000000, 0)/max-cll=0, 0/min-luma=0/max-luma=1023/log2-max-poc-lsb=8/vui-timing-info/vui-hrd-info/slices=1/opt-qp-pps/opt-ref-list-length-pps/no-multi-pass-opt-rps/scenecut-bias=0.05/no-opt-cu-delta-qp/no-aq-motion/hdr/no-hdr-opt/no-dhdr10-opt/analysis-reuse-level=5/scale-factor=0/refine-intra=0/refine-inter=0/refine-mv=0/no-limit-sao/ctu-info=0
    Default : Yes
    Forced : No
    Color range : Limited
    Color primaries : BT.2020
    Transfer characteristics : SMPTE ST 2084
    Matrix coefficients : BT.2020 non-constant
    Mastering display color pri : R: x=0.680000 y=0.320000, G: x=0.265000 y=0.690000, B: x=0.150000 y=0.060000, White point: x=0.312700 y=0.329000
    Mastering display luminance : min: 0.0000 cd/m2, max: 1000.0000 cd/m2
    Audio #1
    ID : 2
    Format : AC-3
    Format/Info : Audio Coding 3
    Format settings, Endianness : Big
    Codec ID : A_AC3
    Duration : 2 h 31 min
    Bit rate mode : Constant
    Bit rate : 640 kb/s
    Channel(s) : 6 channels
    Channel positions : Front: L C R, Side: L R, LFE
    Sampling rate : 48.0 kHz
    Frame rate : 31.250 FPS (1536 spf)
    Bit depth : 16 bits
    Compression mode : Lossy
    Stream size : 693 MiB (4%)
    Title : Dub
    Language : Russian
    Service kind : Complete Main
    Default : Yes
    Forced : No
    Audio #2
    ID : 3
    Format : AC-3
    Format/Info : Audio Coding 3
    Format settings, Endianness : Big
    Codec ID : A_AC3
    Duration : 2 h 31 min
    Bit rate mode : Constant
    Bit rate : 640 kb/s
    Channel(s) : 6 channels
    Channel positions : Front: L C R, Side: L R, LFE
    Sampling rate : 48.0 kHz
    Frame rate : 31.250 FPS (1536 spf)
    Bit depth : 16 bits
    Compression mode : Lossy
    Stream size : 693 MiB (4%)
    Title : AVO А. Гаврилов
    Language : Russian
    Service kind : Complete Main
    Default : No
    Forced : No
    Audio #3
    ID : 4
    Format : AC-3
    Format/Info : Audio Coding 3
    Format settings, Endianness : Big
    Codec ID : A_AC3
    Duration : 2 h 31 min
    Bit rate mode : Constant
    Bit rate : 640 kb/s
    Channel(s) : 6 channels
    Channel positions : Front: L C R, Side: L R, LFE
    Sampling rate : 48.0 kHz
    Frame rate : 31.250 FPS (1536 spf)
    Bit depth : 16 bits
    Compression mode : Lossy
    Stream size : 693 MiB (4%)
    Language : English
    Service kind : Complete Main
    Default : No
    Forced : No
    Text #1
    ID : 5
    Format : UTF-8
    Codec ID : S_TEXT/UTF8
    Codec ID/Info : UTF-8 Plain Text
    Duration : 2 h 29 min
    Bit rate : 93 b/s
    Count of elements : 1863
    Stream size : 103 KiB (0%)
    Title : BD
    Language : Russian
    Default : Yes
    Forced : No
    Text #2
    ID : 6
    Format : UTF-8
    Codec ID : S_TEXT/UTF8
    Codec ID/Info : UTF-8 Plain Text
    Duration : 2 h 23 min
    Bit rate : 4 b/s
    Count of elements : 124
    Stream size : 4.98 KiB (0%)
    Title : Forced
    Language : Russian
    Default : No
    Forced : Yes
    Text #3
    ID : 7
    Format : UTF-8
    Codec ID : S_TEXT/UTF8
    Codec ID/Info : UTF-8 Plain Text
    Duration : 2 h 25 min
    Bit rate : 61 b/s
    Count of elements : 2092
    Stream size : 66.0 KiB (0%)
    Title : BD
    Language : English
    Default : No
    Forced : No
    Text #4
    ID : 8
    Format : UTF-8
    Codec ID : S_TEXT/UTF8
    Codec ID/Info : UTF-8 Plain Text
    Duration : 2 h 25 min
    Bit rate : 66 b/s
    Count of elements : 2256
    Stream size : 71.3 KiB (0%)
    Title : SDH
    Language : English
    Default : No
    Forced : No
    Menu
    00: 00: 00.000 : : Chapter 01
    00: 03: 22.285 : : Chapter 03
    00: 10: 15.156 : : Chapter 05
    00: 15: 24.590 : : Chapter 07
    00: 18: 25.187 : : Chapter 09
    00: 21: 58.817 : : Chapter 11
    00: 24: 52.532 : : Chapter 13
    00: 29: 17.130 : : Chapter 15
    00: 32: 01.085 : : Chapter 17
    00: 34: 45.541 : : Chapter 19
    00: 40: 08.155 : : Chapter 21
    00: 42: 48.315 : : Chapter 23
    00: 47: 50.075 : : Chapter 25
    00: 51: 12.736 : : Chapter 27
    00: 58: 03.396 : : Chapter 29
    01: 01: 41.614 : : Chapter 31
    01: 04: 24.944 : : Chapter 33
    01: 08: 54.254 : : Chapter 35
    01: 11: 54.101 : : Chapter 37
    01: 16: 33.505 : : Chapter 39
    01: 22: 05.503 : : Chapter 41
    01: 26: 19.715 : : Chapter 43
    01: 37: 47.653 : : Chapter 45
    01: 44: 36.478 : : Chapter 47
    01: 50: 38.381 : : Chapter 49
    01: 53: 22.670 : : Chapter 51
    01: 59: 17.566 : : Chapter 53
    02: 03: 51.006 : : Chapter 55
    02: 07: 32.352 : : Chapter 57
    02: 14: 24.723 : : Chapter 59
    02: 20: 48.397 : : Chapter 61
    02: 23: 11.832 : : Chapter 63
    YouTube

    Скриншоты для ознакомления


    Время раздачи: 24/7

    Онлайн видео Марсианин



    Марсианин/The Martian (2015) UHD BDRip [H.265/2160p] [Расширенная версия] [4K, HDR, 10-bit]
    загрузка...
    Рейтинг →
     (голосов: 1, оценка 5/5, голосовать можно 1 раз )

    Другие торренты по теме:

  • Марсианин / The Martian (2015) DCPRip [4K] [2160p] [Трейлер] скачать через торрент бесплатно
  • Марсианин / The Martian (2015) WEBRip [H.264 / 1080p] [Трейлер] скачать через торрент бесплатно
  • Марсианин / The Martian (2015) DCPRip [2K] [Трейлер] скачать через торрент бесплатно
  • Марсианин / The Martian (2015) AAC 2.0 (TS) скачать через торрент бесплатно
  • Марсианин / The Martian (2015) CamRip скачать через торрент бесплатно
  • Марсианин / The Martian (2015) CamRip скачать через торрент бесплатно
  • Марсианин / The Martian (2015) TS [H.264 / 720p-LQ] скачать через торрент бесплатно
  • Марсианин / The Martian (2015) WEBRip [Звук с CAMRip] скачать через торрент бесплатно


    • Комментарии (0):

      Информация

      Информация

        Посетители, находящиеся в группе Гости, не могут оставлять комментарии в данной новости.

        ↓ Меню




        ↓ Опрос

        Вы добавили сайт в закладки?
        Да
        Нет


        Top 10 за месяц (Фильмы)