.
Авторизация | Регистрация
Хочешь лучшие торренты? Добавь свой email!
Добавить

Торрент скачать бесплатно

» » Лжец, Великий и Ужасный / The Wizard of Lies (2017) BDRip [H.264 / 1080p] торрент скачать бесплатно




    Лжец, Великий и Ужасный / The Wizard of Lies (2017) BDRip [H.264 / 1080p] торрент скачать бесплатно

    Опубликовал: Админ | Дата: 8-10-2017, 05:00 | Просмотров: 0

    Производство: США/Home Box Office (HBO), Tribeca Productions
    Жанр: Драма, Криминал, Биография
    Режиссер: Барри Левинсон
    Продюсер: Джозеф Е. Иберти, Роберт Де Ниро, Эми Херман

    Актеры
    Мишель Пфайффер, Роберт Де Ниро, Хэнк Азария, Кристен Коннолли, Алессандро Нивола, Келли АуКойн, Нэйтан Дарроу, Лили Рэйб, Майкл А. Гурджиан, Кэтрин Нардуччи

    Описание

    История Берни Мэдоффа — бизнесмена, который построил крупнейшую в мире финансовую пирамиду и замаскировал её под инвестиционный фонд. Мэдофф был приговорен к 150 годам тюремного заключения, а его незаконная деятельность обернулась катастрофой для всей семьи.

    Дата мировой премьеры: 20 мая 2017
    Дата российской премьеры: 21 мая 2017
    Релиз от: RG NNM Club Video
    Продолжительность: 02: 12: 42
    Качество видео: BDRip
    Перевод: Многоголосый закадровый, профессиональный (Novamedia)
    Субтитры: Английские (полные)
    Видео: AVC/H.264, 1920x1080, ~10 Mbps
    Аудио #1: AC3, 6 ch, ~384 Kbps - Русский
    Аудио #2: DTS, 6 ch, ~1509 kbps - Английский

    x264 info: frame I: 1285 Avg QP: 13.60 size: 235761
    x264 info: frame P: 43930 Avg QP: 14.84 size: 105349
    x264 info: frame B: 145695 Avg QP: 17.44 size: 34405
    Format : Matroska
    Format version : Version 4/Version 2
    File size : 11.0 GiB
    Duration : 2h 12mn
    Overall bit rate : 11.9 Mbps
    Encoded date : UTC 2017-10-05 14: 50: 27
    Writing application : mkvmerge v9.8.0 (\\'Kuglblids\\') 64bit
    Writing library : libebml v1.3.4 + libmatroska v1.4.5
    Video
    ID : 1
    Format : AVC
    Format/Info : Advanced Video Codec
    Format profile : High@L4.1
    Format settings, CABAC : Yes
    Format settings, ReFrames : 4 frames
    Codec ID : V_MPEG4/ISO/AVC
    Duration : 2h 12mn
    Bit rate : 10 000 Kbps
    Width : 1 920 pixels
    Height : 1 080 pixels
    Display aspect ratio : 16: 9
    Frame rate mode : Constant
    Frame rate : 23.976 fps
    Color space : YUV
    Chroma subsampling : 4: 2: 0
    Bit depth : 8 bits
    Scan type : Progressive
    Bits/(Pixel*Frame) : 0.201
    Stream size : 9.04 GiB (82%)
    Writing library : x264 core 152 r2851M ba24899
    Encoding settings : cabac=1/ref=4/deblock=1: -3: -3/analyse=0x3: 0x113/me=umh/subme=11/psy=1/psy_rd=1.05: 0.10/mixed_ref=1/me_range=24/chroma_me=1/trellis=2/8x8dct=1/cqm=0/deadzone=21, 11/fast_pskip=0/chroma_qp_offset=-3/threads=5/lookahead_threads=1/sliced_threads=0/nr=0/decimate=1/interlaced=0/bluray_compat=0/constrained_intra=0/bframes=8/b_pyramid=2/b_adapt=2/b_bias=0/direct=1/weightb=1/open_gop=0/weightp=2/keyint=230/keyint_min=23/scenecut=40/intra_refresh=0/rc=2pass/mbtree=0/bitrate=10000/ratetol=1.0/qcomp=0.70/qpmin=3/qpmax=69/qpstep=4/cplxblur=20.0/qblur=0.5/ip_ratio=1.40/pb_ratio=1.30/aq=2: 1.00
    Default : Yes
    Forced : No
    Audio #1
    ID : 2
    Format : AC-3
    Format/Info : Audio Coding 3
    Mode extension : CM (complete main)
    Format settings, Endianness : Big
    Codec ID : A_AC3
    Duration : 2h 12mn
    Bit rate mode : Constant
    Bit rate : 384 Kbps
    Channel(s) : 6 channels
    Channel positions : Front: L C R, Side: L R, LFE
    Sampling rate : 48.0 KHz
    Bit depth : 16 bits
    Compression mode : Lossy
    Stream size : 364 MiB (3%)
    Language : Russian
    Default : Yes
    Forced : No
    Audio #2
    ID : 3
    Format : DTS
    Format/Info : Digital Theater Systems
    Mode : 16
    Format settings, Endianness : Big
    Codec ID : A_DTS
    Duration : 2h 12mn
    Bit rate mode : Constant
    Bit rate : 1 509 Kbps
    Channel(s) : 6 channels
    Channel positions : Front: L C R, Side: L R, LFE
    Sampling rate : 48.0 KHz
    Bit depth : 24 bits
    Compression mode : Lossy
    Stream size : 1.40 GiB (13%)
    Language : English
    Default : No
    Forced : No
    Text
    ID : 4
    Format : UTF-8
    Codec ID : S_TEXT/UTF8
    Codec ID/Info : UTF-8 Plain Text
    Language : English
    Default : No
    Forced : No

    Скриншоты для ознакомления



    Все одноименные релизы в Клубе
    Время раздачи: (до появления первых 3-5 скачавших)

    Онлайн видео Лжец, Великий и Ужасный



    Лжец, Великий и Ужасный/The Wizard of Lies (2017) BDRip [H.264/1080p]
    загрузка...
    Рейтинг →
     (голосов: 1, оценка 5/5, голосовать можно 1 раз )

    Другие торренты по теме:

  • Лжец, Великий и Ужасный / The Wizard of Lies (2017) WEB-DLRip [H.264] [MP4|640x480@852x480] [AD]
  • Лжец, Великий и Ужасный / The Wizard of Lies (2017) WEB-DL [H.264] Novamedia [MP4|1280x720] [AD]
  • Лжец, Великий и Ужасный / The Wizard of Lies (2017) WEB-DLRip [Line] [AD]
  • Лжец, Великий и Ужасный / The Wizard of Lies (2017) WEB-DLRip [H.264 / 1080p-LQ] [Line] [AD]
  • Лжец, Великий и Ужасный / The Wizard of Lies (2017) HDTV [H.264 / 1080i-LQ]
  • Лжец, Великий и Ужасный / The Wizard of Lies (2017) BDRemux [H.264 / 1080p] [EN / EN, Fr, Dan, Du, Fin, Nor, Sp, Sw Sub]
  • Лжец, Великий и Ужасный / The Wizard of Lies (2017) BDRemux [H.264 / 1080p] [MVO]
  • Лжец, Великий и Ужасный / The Wizard of Lies (2017) HDTVRip [H.264]


    • Комментарии (0):

      Информация

      Информация

        Посетители, находящиеся в группе Гости, не могут оставлять комментарии в данной новости.

        ↓ Меню




        ↓ Опрос

        Вы добавили сайт в закладки?
        Да
        Нет


        Top 10 за месяц (Фильмы)