.
Авторизация | Регистрация
Хочешь лучшие торренты? Добавь свой email!
Добавить

Торрент скачать бесплатно

» » Мистер Штайн идёт в онлайн / Un profil pour deux (2017) WEB-DL [H.264 / 720p-LQ] торрент скачать бесплатно




    Мистер Штайн идёт в онлайн / Un profil pour deux (2017) WEB-DL [H.264 / 720p-LQ] торрент скачать бесплатно

    Опубликовал: Админ | Дата: 8-10-2017, 05:00 | Просмотров: 0

    Производство: Франция, Германия, Бельгия
    Жанр: Комедия
    Режиссер: Стефан Робели

    Актеры
    Пьер Ришар, Янис Леспере, Фанни Валетт, Стефани де Крэенкур, Стефан Биссо, Маша Мериль, Гюстав Керверн, Пьер Кивитт, Анна Бедерке, Филипп Шэйн

    Описание

    75-летний вдовец ведёт уединённый образ жизни. Родственники дарят ему компьютер в надежде оживить будни старика. Вскоре он заводит онлайн знакомство, правда, несколько приукрасив данные своего профайла. Элегантной беседой, несвойственной современным людям, он сильно заинтересовывает молодую красивую женщину. Как избежать разоблачения при личной встрече?

    Возраст: 16+ (зрителям, достигшим 16 лет)
    Дата мировой премьеры: 19 января 2017
    Дата премьеры в России: 24 августа 2017

    Продолжительность: 01: 36: 25
    Качество видео: WEB-DL
    Перевод: Профессиональный многоголосый (iTunes)
    Субтитры: Отсутствуют
    Видео: AVC, 1280x688 (1.860), 25.000 fps, 2 844 Kbps (0.129 bit/pixel)
    Аудио: AC-3, 48.0 KHz, 6 ch, 384 Kbps, CBR

    Общее
    Уникальный идентификатор : 184003820837137480389495684355094464061 (0x8A6DD8CAB720F0459503E18AEA13C63D)
    Полное имя : D: \NNM\Мистер Штайн\Mister Shtajn 2017 WEB-DL 720p-LQ.mkv
    Формат : Matroska
    Версия формата : Version 2
    Размер файла : 2, 17 Гбайт
    Продолжительность : 1 ч. 36 м.
    Общий поток : 3228 Кбит/сек
    Дата кодирования : UTC 2017-10-06 14: 10: 39
    Программа кодирования : mkvmerge v7.8.0 (\\'River Man\\') 32bit built on Apr 3 2015 12: 11: 22
    Библиотека кодирования : libebml v1.3.1 + libmatroska v1.4.2
    Видео
    Идентификатор : 1
    Формат : AVC
    Формат/Информация : Advanced Video Codec
    Профиль формата : High@L4.1
    Параметр CABAC формата : Да
    Параметр ReFrames формата : 10 кадров
    Идентификатор кодека : V_MPEG4/ISO/AVC
    Продолжительность : 1 ч. 36 м.
    Битрейт : 2844 Кбит/сек
    Ширина : 1280 пикселей
    Высота : 688 пикселей
    Соотношение сторон : 1, 85: 1
    Режим частоты кадров : Постоянный
    Частота кадров : 25, 000 кадров/сек
    Цветовое пространство : YUV
    Субдискретизация насыщенности : 4: 2: 0
    Битовая глубина : 8 бит
    Тип развёртки : Прогрессивная
    Бит/(Пиксели*Кадры) : 0.129
    Размер потока : 1, 87 Гбайт (86%)
    Библиотека кодирования : x264 core 146 r2538 121396c
    Настройки программы : cabac=1/ref=10/deblock=1: -3: -3/analyse=0x3: 0x113/me=umh/subme=11/psy=1/psy_rd=1.00: 0.15/mixed_ref=1/me_range=32/chroma_me=1/trellis=2/8x8dct=1/cqm=0/deadzone=21, 11/fast_pskip=0/chroma_qp_offset=-3/threads=12/lookahead_threads=2/sliced_threads=0/nr=0/decimate=0/interlaced=0/bluray_compat=0/constrained_intra=0/bframes=8/b_pyramid=2/b_adapt=2/b_bias=0/direct=1/weightb=1/open_gop=0/weightp=2/keyint=240/keyint_min=23/scenecut=40/intra_refresh=0/rc_lookahead=40/rc=2pass/mbtree=1/bitrate=2844/ratetol=1.0/qcomp=0.60/qpmin=0/qpmax=69/qpstep=4/cplxblur=20.0/qblur=0.5/vbv_maxrate=50000/vbv_bufsize=62500/nal_hrd=none/filler=0/ip_ratio=1.40/aq=1: 0.90
    Default : Да
    Forced : Нет
    Аудио
    Идентификатор : 2
    Формат : AC-3
    Формат/Информация : Audio Coding 3
    Расширение режима : CM (complete main)
    Параметр Endianness формата : Big
    Идентификатор кодека : A_AC3
    Продолжительность : 1 ч. 36 м.
    Вид битрейта : Постоянный
    Битрейт : 384 Кбит/сек
    Каналы : 6 каналов
    Расположение каналов : Front: L C R, Side: L R, LFE
    Частота : 48, 0 КГц
    Частота кадров : 31, 250 кадров/сек (1536 spf)
    Битовая глубина : 16 бит
    Метод сжатия : С потерями
    Размер потока : 265 Мбайт (12%)
    Default : Да
    Forced : Нет

    Скриншоты для ознакомления



    Все релизы фильма Мистер Штайн идёт в онлайн на NNM-Club
    Время раздачи: Круглосуточно до 10 скачавших

    Онлайн видео Мистер Штайн идёт в онлайн



    Мистер Штайн идёт в онлайн/Un profil pour deux (2017) WEB-DL [H.264/720p-LQ]
    загрузка...
    Рейтинг →
     (голосов: 1, оценка 4/5, голосовать можно 1 раз )

    Другие торренты по теме:

  • Мистер Штайн идёт в онлайн / Un profil pour deux (2017) WEB-DLRip [H.264]
  • Мистер Штайн идёт в онлайн / Un profil pour deux (2017) WEB-DLRip [H.264]
  • Мистер Штайн идёт в онлайн / Un profil pour deux (2017) WEB-DL [H.264 / 1080p-LQ]
  • Мистер Штайн идёт в онлайн / Un profil pour deux (2017) WEB-DLRip
  • Мистер Штайн идёт в онлайн / Un profil pour deux (2017) WEB-DL [1080p] ATV
  • Мистер Штайн идёт в онлайн / Un profil pour deux (2017) WEB-DLRip [576p] iPad


    • Комментарии (0):

      Информация

      Информация

        Посетители, находящиеся в группе Гости, не могут оставлять комментарии в данной новости.

        ↓ Меню




        ↓ Опрос

        Вы добавили сайт в закладки?
        Да
        Нет


        Top 10 за месяц (Фильмы)