.
Авторизация | Регистрация
Хочешь лучшие торренты? Добавь свой email!
Добавить

Торрент скачать бесплатно

» » Снайпер: Идеальное убийство / Sniper: Ultimate Kill (2017) BDRip [H.264 / 1080p] торрент скачать бесплатно




    Снайпер: Идеальное убийство / Sniper: Ultimate Kill (2017) BDRip [H.264 / 1080p] торрент скачать бесплатно

    Опубликовал: Админ | Дата: 8-10-2017, 05:00 | Просмотров: 0

    Производство: США
    Жанр: Боевик, триллер, драма
    Режиссер: Клаудио Фах

    Актеры
    Билли Зейн, Том Беренджер, Денай Гарсиа, Джо Ландо, Хуан Себастьян Калеро, Чад Коллинз, Хуан Пабло Гамбоа, Фелипе Калеро, Лучо Веласко ...

    Описание

    Глава колумбийского наркокартеля объединят в своих руках все каналы доставки наркотиков в США. Его врагов уничтожает суперснайпер по кличке Дьявол. Агентство по борьбе с наркотиками отправляет на борьбу с ними спецагента под прикрытием, опытного снайпера из морской разведки.

    Рейтинг MPAA: R (лицам до 17 лет обязательно присутствие взрослого)
    Дата мировой премьеры: 3 октября 2017
    Продолжительность: 01: 33: 18
    Качество видео: BDRip (1080p)
    Перевод: Профессиональный многоголосый (Лицензия BD EUR)
    Субтитры: Русские, английские
    Видео: AVC, 1920x800 (2.40: 1), 23.976 fps, 15.3 Mbps (0.414 bit/pixel)
    Аудио #1: AC-3, 48.0 KHz, 6 ch, 640 Kbps, CBR | Русский
    Аудио #2: DTS, 48.0 KHz, 6 ch, 1 510 Kbps, CBR | Английский

    Общее
    Уникальный идентификатор : 246350170706972588388660158010765245164 (0xB955512AA4E0853B9BD871CD365A7AEC)
    Полное имя : D: \NNM\Снайпер\Snajper 2017 BDRip 1080p.mkv
    Формат : Matroska
    Версия формата : Version 4/Version 2
    Размер файла : 11, 6 Гбайт
    Продолжительность : 1 ч. 33 м.
    Общий поток : 17, 8 Мбит/сек
    Программа кодирования : mkvmerge v9.7.1 (\\'Pandemonium\\') 64bit
    Библиотека кодирования : libebml v1.3.4 + libmatroska v1.4.5
    Видео
    Идентификатор : 1
    Формат : AVC
    Формат/Информация : Advanced Video Codec
    Профиль формата : High@L4.1
    Параметр CABAC формата : Да
    Параметр ReFrames формата : 5 кадров
    Идентификатор кодека : V_MPEG4/ISO/AVC
    Продолжительность : 1 ч. 33 м.
    Битрейт : 15, 6 Мбит/сек
    Ширина : 1920 пикселей
    Высота : 800 пикселей
    Соотношение сторон : 2, 40: 1
    Режим частоты кадров : Постоянный
    Частота кадров : 23, 976 (24000/1001) кадра/сек
    Цветовое пространство : YUV
    Субдискретизация насыщенности : 4: 2: 0
    Битовая глубина : 8 бит
    Тип развёртки : Прогрессивная
    Бит/(Пиксели*Кадры) : 0.424
    Размер потока : 10, 2 Гбайт (88%)
    Библиотека кодирования : x264 core 148 r2665kMod a01e339
    Настройки программы : cabac=1/ref=8/deblock=1: -3: -3/analyse=0x3: 0x133/me=umh/subme=11/psy=1/fade_compensate=0.00/psy_rd=1.00: 0.00/mixed_ref=1/me_range=64/chroma_me=1/trellis=2/8x8dct=1/cqm=0/deadzone=21, 11/fast_pskip=0/chroma_qp_offset=-2/threads=25/lookahead_threads=6/sliced_threads=0/nr=0/decimate=0/interlaced=0/bluray_compat=0/constrained_intra=0/fgo=0/bframes=11/b_pyramid=2/b_adapt=2/b_bias=0/direct=3/weightb=1/open_gop=0/weightp=2/keyint=240/keyint_min=24/scenecut=40/intra_refresh=0/rc_lookahead=40/rc=crf/mbtree=0/crf=19.8000/qcomp=0.70/qpmin=0/qpmax=69/qpstep=4/vbv_maxrate=50000/vbv_bufsize=40000/crf_max=0.0/nal_hrd=none/filler=0/ip_ratio=1.25/pb_ratio=1.15/aq=3: 0.85
    Язык : English
    Default : Да
    Forced : Нет
    Аудио #1
    Идентификатор : 2
    Формат : AC-3
    Формат/Информация : Audio Coding 3
    Расширение режима : CM (complete main)
    Параметр Endianness формата : Big
    Идентификатор кодека : A_AC3
    Продолжительность : 1 ч. 33 м.
    Вид битрейта : Постоянный
    Битрейт : 640 Кбит/сек
    Каналы : 6 каналов
    Расположение каналов : Front: L C R, Side: L R, LFE
    Частота : 48, 0 КГц
    Частота кадров : 31, 250 кадров/сек (1536 spf)
    Битовая глубина : 16 бит
    Метод сжатия : С потерями
    Размер потока : 427 Мбайт (4%)
    Язык : Russian
    Default : Да
    Forced : Нет
    Аудио #2
    Идентификатор : 3
    Формат : DTS
    Формат/Информация : Digital Theater Systems
    Режим : 16
    Параметр Endianness формата : Big
    Идентификатор кодека : A_DTS
    Продолжительность : 1 ч. 33 м.
    Вид битрейта : Постоянный
    Битрейт : 1509 Кбит/сек
    Каналы : 6 каналов
    Расположение каналов : Front: L C R, Side: L R, LFE
    Частота : 48, 0 КГц
    Частота кадров : 93, 750 кадра/сек (512 spf)
    Битовая глубина : 16 бит
    Метод сжатия : С потерями
    Размер потока : 1007 Мбайт (8%)
    Язык : English
    Default : Нет
    Forced : Нет
    Текст #1
    Идентификатор : 4
    Формат : UTF-8
    Идентификатор кодека : S_TEXT/UTF8
    Идентификатор кодека/Информация : UTF-8 Plain Text
    Продолжительность : 1 ч. 25 м.
    Битрейт : 67 бит/сек
    Count of elements : 927
    Размер потока : 42, 4 Кбайт (0%)
    Заголовок : Полные
    Язык : Russian
    Default : Нет
    Forced : Нет
    Текст #2
    Идентификатор : 5
    Формат : UTF-8
    Идентификатор кодека : S_TEXT/UTF8
    Идентификатор кодека/Информация : UTF-8 Plain Text
    Продолжительность : 1 ч. 24 м.
    Битрейт : 50 бит/сек
    Count of elements : 902
    Размер потока : 31, 6 Кбайт (0%)
    Заголовок : Full
    Язык : English
    Default : Да
    Forced : Нет

    Скриншоты для ознакомления



    Все релизы фильма Снайпер: Идеальное убийство на NNM-Club
    Время раздачи: Круглосуточно до 10 скачавших

    Онлайн видео Снайпер: Идеальное убийство



    Снайпер: Идеальное убийство/Sniper: Ultimate Kill (2017) BDRip [H.264/1080p]
    загрузка...
    Рейтинг →
     (голосов: 1, оценка 4/5, голосовать можно 1 раз )

    Другие торренты по теме:

  • Снайпер: Идеальное убийство / Sniper: Ultimate Kill (2017) WEB-DLRip [H.264 / 720p-LQ] [Line] [AD]
  • Снайпер: Идеальное убийство / Sniper: Ultimate Kill (2017) WEB-DLRip [H.264 / 1080p-LQ] [Line] [AD]
  • Снайпер: Идеальное убийство / Sniper: Ultimate Kill (2017) WEB-DLRip [Line] [AD]
  • Снайпер: Идеальное убийство / Sniper: Ultimate Kill (2017) BDRip [H.264 / 720p]
  • Снайпер: Идеальное убийство / Sniper: Ultimate Kill (2017) Blu-ray [H.264 / 1080p]
  • Снайпер: Идеальное убийство / Sniper: Ultimate Kill (2017) BDRip
  • Снайпер: Идеальное убийство / Sniper: Ultimate Kill (2017) HDRip [H.264] [MP4|1280x534]
  • Снайпер: Идеальное убийство / Sniper: Ultimate Kill (2017) HDRip [H.264] [MP4|1920x800]


    • Комментарии (0):

      Информация

      Информация

        Посетители, находящиеся в группе Гости, не могут оставлять комментарии в данной новости.

        ↓ Меню




        ↓ Опрос

        Вы добавили сайт в закладки?
        Да
        Нет


        Top 10 за месяц (Фильмы)